<?xml version="1.0" standalone="no"?>
<!DOCTYPE svg PUBLIC "-//W3C//DTD SVG 1.1//EN" "http://www.w3.org/Graphics/SVG/1.1/DTD/svg11.dtd">
<svg xmlns="http://www.w3.org/2000/svg">
<defs >
<font id="MuseoModerno" horiz-adv-x="599" ><font-face
    font-family="MuseoModerno Thin ExtraLight"
    units-per-em="1000"
    panose-1="0 0 0 0 0 0 0 0 0 0"
    ascent="1145"
    descent="-445"
    alphabetic="0" />
<glyph unicode=" " horiz-adv-x="265" />
<glyph unicode="!" horiz-adv-x="235" d="M93 200V700H141V200H93ZM117 -8Q102 -8 90 4T78 31Q78 48 90 59T117 71Q134 71 145 60T157 31Q157 21 152 12T137 -2T117 -8Z" />
<glyph unicode="&quot;" horiz-adv-x="386" d="M258 431V700H306V431H258ZM80 431V700H127V431H80Z" />
<glyph unicode="#" horiz-adv-x="720" d="M160 0L190 204H27V244H196L230 465H62V506H235L264 700H308L278 506H467L496 700H539L510 506H676V465H505L471 244H641V204H465L435 0H392L422 204H233L203 0H160ZM239 244H428L462 465H273L239 244Z" />
<glyph unicode="$" horiz-adv-x="626" d="M287 -119V24H328V-119H287ZM287 677V819H328V677H287ZM76 0V44H383Q430 44 463 65T512 121T529 192Q529 228 513 260T466 313T387 334H240Q180 334 138 358T74 424T52 513Q52 561 74 604T139 673T243 700H532V656H246Q200
656 168 636T118 583T101 516Q101 483 116 451T163 399T241 379H389Q451 379 493 354T556 288T577 197Q577 146 556 101T491 28T386 0H76Z" />
<glyph unicode="%" horiz-adv-x="908" d="M219 334Q177 334 140 353T80 408T57 493V553Q57 603 79 638T139 693T219 713Q261 713 298 694T358 639T381 553V493Q381 444 358 409T298 354T219 334ZM219 372Q250 372 277 386T322 429T340 498V548Q340 590 323 618T278
660T219 675Q188 675 161 661T116 618T98 548V498Q98 457 115 429T160 387T219 372ZM689 -13Q647 -13 610 6T550 61T527 147V207Q527 257 550 292T610 346T689 366Q732 366 769 347T828 292T851 207V147Q851 97 829 62T769 7T689 -13ZM689 25Q720 25 747 39T792
82T810 151V201Q810 243 793 271T748 314T689 329Q658 329 631 314T586 271T568 201V151Q568 111 585 83T630 40T689 25ZM182 0L676 700H722L228 0H182Z" />
<glyph unicode="&amp;" horiz-adv-x="833" d="M675 -216Q637 -216 606 -200T556 -154T537 -81Q537 -36 560 -5T620 44T700 65Q696 69 680 83T626 129L558 184Q524 119 484 75T394 9T278 -13Q208 -13 155 16T71 97T41 215Q41 261 60 306T120 392T227 457Q210 471
192 490T160 533T147 584Q147 618 164 647T213 695T288 713Q328 713 358 697T406 652T423 587Q423 542 392 507T303 448L543 252L550 266Q580 332 603 371T645 431T687 457T739 463H770V423H741Q718 423 701 417T667 392T631 336T583 237L577 224L671 148Q730 101
762 65T808 -3T821 -68Q821 -108 803 -141T753 -195T675 -216ZM283 30Q338 30 379 49T456 108T524 213L260 430Q199 406 161 371T106 296T88 216Q88 165 112 123T181 55T283 30ZM676 -176Q720 -176 748 -147T776 -68Q776 -44 767 -18T732 31Q691 30 657 17T602
-21T581 -85Q581 -123 607 -149T676 -176ZM271 475Q298 486 323 501T363 538T379 586Q379 622 354 647T283 673Q253 673 233 660T202 627T191 586Q191 561 204 541T236 504T271 475Z" />
<glyph unicode="&apos;" horiz-adv-x="207" d="M80 431V700H127V431H80Z" />
<glyph unicode="(" horiz-adv-x="315" d="M259 -180Q195 -103 151 10T107 275Q107 426 151 540T259 730H315Q247 654 201 540T155 275Q155 124 201 11T315 -180H259Z" />
<glyph unicode=")" horiz-adv-x="315" d="M0 -180Q68 -103 114 10T160 275Q160 426 114 540T0 730H56Q120 654 164 540T209 275Q209 124 165 11T56 -180H0Z" />
<glyph unicode="*" horiz-adv-x="456" d="M208 328V481L75 405L56 439L189 515L56 591L75 625L208 549V702H247V549L381 625L400 591L267 515L400 439L381 405L247 481V328H208Z" />
<glyph unicode="+" horiz-adv-x="595" d="M275 129V325H78V368H275V565H321V368H517V325H321V129H275Z" />
<glyph unicode="," horiz-adv-x="151" d="M29 -143L67 -7Q53 -4 45 7T36 32Q36 48 48 59T75 71Q93 71 104 60T115 31Q115 20 113 10T107 -14L71 -143H29Z" />
<glyph unicode="-" horiz-adv-x="363" d="M40 244V288H323V244H40Z" />
<glyph unicode="." horiz-adv-x="151" d="M75 -8Q60 -8 48 4T36 31Q36 48 48 59T75 71Q92 71 103 60T115 31Q115 21 110 12T95 -2T75 -8Z" />
<glyph unicode="/" horiz-adv-x="361" d="M-19 -100L306 730H352L27 -100H-19Z" />
<glyph unicode="0" horiz-adv-x="647" d="M325 -14Q255 -14 200 17T112 101T80 221V478Q80 544 112 597T199 682T325 713Q394 713 448 682T535 598T567 478V221Q567 155 535 102T449 17T325 -14ZM325 30Q378 30 422 54T492 120T519 211V488Q519 538 493 579T422
645T325 669Q271 669 227 645T156 580T129 488V211Q129 161 155 120T226 55T325 30Z" />
<glyph unicode="1" horiz-adv-x="436" d="M59 0V44H209V656H60V700H258V44H393V0H59Z" />
<glyph unicode="2" horiz-adv-x="543" d="M152 0Q118 0 94 13T58 48T46 95Q46 121 59 146T98 189L339 360Q384 392 407 432T430 513Q430 552 410 584T351 636T253 656H78V700H257Q330 700 379 674T453 606T478 514Q478 463 451 414T369 326L130 157Q112 145 104
130T95 98Q95 76 112 60T161 44H491V0H152Z" />
<glyph unicode="3" horiz-adv-x="540" d="M58 0V44H287Q334 44 366 65T415 119T432 189Q432 227 415 261T363 317T278 339H97V382H285Q334 382 366 402T416 453T433 519Q433 554 416 585T366 636T285 656H58V700H295Q353 700 394 674T458 608T481 522Q481 461
449 419T359 358Q400 346 427 320T467 260T481 190Q481 141 459 98T396 27T297 0H58Z" />
<glyph unicode="4" horiz-adv-x="642" d="M435 0V170H158Q127 170 104 184T69 223T56 275Q56 291 60 306T71 335L281 700H335L117 321Q110 310 107 299T104 276Q104 252 119 233T164 213H435V484H484V213H586V170H484V0H435Z" />
<glyph unicode="5" horiz-adv-x="561" d="M75 0V44H282Q338 44 377 69T435 133T455 217Q455 258 437 295T382 356T290 380H88V700H459V656H136V423H298Q364 423 410 394T480 317T504 216Q504 161 479 112T406 31T288 0H75Z" />
<glyph unicode="6" horiz-adv-x="610" d="M306 -14Q241 -14 184 13T92 91T57 216Q57 279 83 338T157 467L313 699H367L154 379Q187 412 229 428T316 444Q393 444 446 412T525 327T552 216Q552 142 518 91T427 13T306 -14ZM306 29Q358 29 403 50T476 114T504 219Q504
265 483 307T418 375T310 402Q258 402 211 381T135 318T106 216Q106 156 134 114T209 51T306 29Z" />
<glyph unicode="7" horiz-adv-x="510" d="M115 0L398 573Q412 599 412 619Q412 636 401 646T360 656H25V700H368Q401 700 421 689T451 661T461 622Q461 607 458 593T447 565L169 0H115Z" />
<glyph unicode="8" horiz-adv-x="632" d="M316 -13Q229 -13 172 16T87 92T59 192Q59 228 72 262T115 325T197 371Q134 395 107 436T80 523Q80 571 106 614T184 685T316 712Q395 712 447 685T526 615T552 523Q552 478 525 437T435 371Q486 354 516 326T560 263T573
192Q573 140 545 93T459 16T316 -13ZM316 31Q387 31 433 54T501 115T524 192Q524 260 472 304T316 349Q212 349 160 305T108 192Q108 152 130 115T199 55T316 31ZM316 392Q408 392 455 428T503 530Q503 566 483 597T421 648T316 668Q254 668 212 649T149 598T128
530Q128 465 175 429T316 392Z" />
<glyph unicode="9" horiz-adv-x="610" d="M235 0L455 331Q423 295 382 280T296 265Q218 265 165 296T85 378T57 485Q57 543 85 595T168 680T303 713Q369 713 426 686T517 608T552 483Q552 442 541 405T507 328T452 242L290 0H235ZM302 307Q355 307 400 328T475
389T504 483Q504 544 476 585T402 648T303 670Q238 670 194 644T128 575T106 486Q106 440 127 399T192 333T302 307Z" />
<glyph unicode=":" horiz-adv-x="151" d="M75 438Q60 438 48 450T36 477Q36 494 48 505T75 517Q92 517 103 506T115 477Q115 467 110 458T95 444T75 438ZM75 -8Q60 -8 48 4T36 31Q36 48 48 59T75 71Q92 71 103 60T115 31Q115 21 110 12T95 -2T75 -8Z" />
<glyph unicode=";" horiz-adv-x="151" d="M75 439Q60 439 48 450T36 478Q36 494 48 505T75 517Q92 517 103 506T115 478Q115 462 104 451T75 439ZM29 -143L67 -7Q53 -4 45 7T36 32Q36 48 48 59T75 71Q93 71 104 60T115 31Q115 20 113 10T107 -14L71 -143H29Z" />
<glyph unicode="&lt;" horiz-adv-x="560" d="M510 109L50 325V377L510 594V546L97 351L510 157V109Z" />
<glyph unicode="=" horiz-adv-x="595" d="M78 431V473H516V431H78ZM78 223V265H517V223H78Z" />
<glyph unicode="&gt;" horiz-adv-x="560" d="M50 109V157L463 351L50 546V594L510 377V325L50 109Z" />
<glyph unicode="?" horiz-adv-x="418" d="M112 228V271Q183 271 231 299T303 371T327 465Q327 514 303 558T231 630T112 658H58V700H112Q198 700 256 666T345 578T376 463Q376 404 346 350T257 262T112 228ZM135 -8Q119 -8 107 4T95 31Q95 48 107 59T135 71Q151
71 162 60T174 31Q174 21 169 12T154 -2T135 -8Z" />
<glyph unicode="@" horiz-adv-x="1068" d="M572 -218Q453 -216 358 -180T196 -78T93 71T57 253Q57 351 94 436T196 586T348 686T534 723Q633 723 719 687T871 586T974 437T1011 253Q1011 200 995 153T943 77T850 47Q795 47 759 77T708 160Q683 109 638 78T532
47Q475 47 428 75T353 149T325 253Q325 310 353 356T428 431T532 460Q589 460 636 432T711 357T739 253V211Q739 175 754 148T794 105T847 89Q891 89 917 114T954 176T966 253Q966 340 933 417T840 554T703 647T534 681Q444 681 366 647T228 554T136 418T102 253Q102
166 134 89T227 -46T375 -139T572 -174H592V-218H572ZM532 89Q580 89 616 112T674 173T695 253Q695 295 674 332T617 393T532 417Q484 417 448 394T391 333T370 253Q370 210 390 173T447 113T532 89Z" />
<glyph unicode="A" horiz-adv-x="670" d="M4 0L253 644Q267 681 286 697T334 713Q362 713 382 698T415 645L666 0H613L536 198H132L56 0H4ZM148 241H521L372 628Q365 647 357 658T334 669Q319 669 312 659T296 628L148 241Z" />
<glyph unicode="B" horiz-adv-x="689" d="M82 0V700H449Q505 700 544 676T606 612T628 525Q628 490 613 456T569 397T501 361Q546 353 578 327T627 265T645 187Q645 139 623 96T558 27T449 0H82ZM131 44H446Q496 44 529 65T579 120T597 192Q597 229 579 261T526
314T440 335H131V44ZM131 378H425Q473 378 507 398T560 451T579 520Q579 555 562 586T513 637T437 656H131V378Z" />
<glyph unicode="C" horiz-adv-x="491" d="M387 0Q309 0 243 27T130 103T56 215T30 351Q30 423 56 486T129 597T243 672T387 700H459V656H390Q325 656 269 633T170 568T105 472T81 351Q81 285 104 230T170 133T268 68T390 44H459V0H387Z" />
<glyph unicode="D" horiz-adv-x="712" d="M82 0V700H295Q405 700 486 655T613 532T658 351Q658 249 613 170T487 45T295 0H82ZM131 44H296Q386 44 457 81T568 186T609 351Q609 446 569 514T457 619T296 656H131V44Z" />
<glyph unicode="E" horiz-adv-x="554" d="M240 0Q182 0 141 27T77 97T55 187Q55 241 82 288T165 355Q111 380 86 423T60 514Q60 565 84 607T149 674T240 699H506V656H246Q205 656 175 637T127 586T109 514Q109 477 127 446T178 397T250 378H467V335H257Q207 335
173 314T122 258T104 187Q104 150 120 118T169 65T249 44H506V0H240Z" />
<glyph unicode="F" horiz-adv-x="520" d="M80 0V540Q80 588 100 624T156 680T240 700H485V656H245Q190 656 159 624T128 540V369H446V325H128V0H80Z" />
<glyph unicode="G" horiz-adv-x="849" d="M618 -223Q576 -223 541 -204T483 -148T461 -57Q461 -45 462 -32T465 -5Q383 -14 309 6T178 73T87 191T54 352Q54 427 79 492T152 607T265 685T413 713Q494 713 560 685T673 608T745 493T771 354V-54Q771 -110 751 -147T697
-204T618 -223ZM615 -177Q659 -177 691 -148T723 -56V244Q654 208 612 168T548 87T517 11T509 -53Q509 -93 524 -121T563 -163T615 -177ZM413 35Q431 35 446 36T479 42Q491 84 519 128T596 215T723 297V354Q723 422 700 479T635 579T536 645T413 669Q346 669 290
646T191 579T126 478T103 352Q103 284 126 226T191 125T289 59T413 35Z" />
<glyph unicode="H" horiz-adv-x="694" d="M82 0V699H131V378H563V699H612V0H563V335H131V0H82Z" />
<glyph unicode="I" horiz-adv-x="439" d="M52 0V44H196V656H52V700H387V656H244V44H387V0H52Z" />
<glyph unicode="J" horiz-adv-x="396" d="M167 -216Q128 -216 95 -200T41 -151T20 -68Q20 -21 39 34T112 152T266 284V656H104V700H314V-54Q314 -110 294 -145T241 -198T167 -216ZM164 -172Q191 -172 214 -161T252 -123T266 -56V231Q180 170 138 116T81 16T67
-64Q67 -120 96 -146T164 -172Z" />
<glyph unicode="K" horiz-adv-x="680" d="M82 0V700H131V360H361Q412 360 453 378T518 431T543 514L544 700H593V515Q593 448 556 401T457 333L554 93Q566 67 579 56T619 44H652V0H612Q574 0 550 18T509 72L409 321Q395 319 381 318T352 317H131V0H82Z" />
<glyph unicode="L" horiz-adv-x="473" d="M241 0Q190 0 154 20T99 78T80 165V699H128V158Q128 107 158 76T243 44H433V0H241Z" />
<glyph unicode="M" horiz-adv-x="1092" d="M548 -13Q499 -13 461 10T400 73T377 168V542Q377 578 360 607T315 652T253 669Q219 669 191 653T146 607T129 542V0H80V533Q80 586 102 626T163 690T253 713Q303 713 342 690T403 627T426 533V159Q426 121 443 93T487
48T548 31Q580 31 607 47T650 92T666 159V533Q666 586 688 626T750 690T840 713Q890 713 929 690T990 627T1012 533V0H964V542Q964 578 948 607T903 652T840 669Q805 669 777 653T732 607T715 542V168Q715 114 694 74T634 10T548 -13Z" />
<glyph unicode="N" horiz-adv-x="794" d="M548 -13Q498 -13 460 10T399 73T377 167V542Q377 578 360 607T315 652T253 669Q219 669 191 653T146 607T129 542V0H80V533Q80 586 102 626T163 690T253 713Q303 713 342 690T403 627T426 533V158Q426 121 443 93T487
48T548 31Q580 31 607 47T650 92T666 158V700H714V167Q714 114 693 74T635 10T548 -13Z" />
<glyph unicode="O" horiz-adv-x="829" d="M415 -13Q333 -13 267 15T153 93T80 209T54 350Q54 425 79 491T152 607T266 685T415 713Q497 713 563 685T677 607T749 491T775 350Q775 275 750 209T677 93T564 15T415 -13ZM415 31Q482 31 539 55T638 122T703 223T727
350Q727 419 704 477T638 578T539 645T415 669Q347 669 290 646T191 579T126 477T103 350Q103 282 126 224T191 122T290 55T415 31Z" />
<glyph unicode="P" horiz-adv-x="659" d="M82 0V700H379Q442 700 493 672T575 594T606 477Q606 413 577 363T495 285T374 256H131V0H82ZM131 300H369Q422 300 464 321T532 382T558 477Q558 534 533 574T465 635T372 656H131V300Z" />
<glyph unicode="Q" horiz-adv-x="829" d="M391 -203V2H439V-203H391ZM415 -13Q333 -13 267 15T153 93T80 209T54 350Q54 425 79 491T152 607T266 685T415 713Q497 713 563 685T677 607T749 491T775 350Q775 275 750 209T677 93T564 15T415 -13ZM415 31Q482 31
539 55T638 122T703 223T727 350Q727 419 704 477T638 578T539 645T415 669Q347 669 290 646T191 579T126 477T103 350Q103 282 126 224T191 122T290 55T415 31Z" />
<glyph unicode="R" horiz-adv-x="673" d="M82 0V700H383Q446 700 497 673T579 598T610 484Q610 413 572 360T469 285L554 93Q566 67 579 56T619 44H652V0H612Q576 0 552 18T509 72L421 272Q409 271 396 270T368 268H131V0H82ZM131 312H373Q426 312 468 332T536
391T562 484Q562 538 537 577T469 636T376 656H131V312Z" />
<glyph unicode="S" horiz-adv-x="628" d="M76 0V44H383Q430 44 463 65T512 121T529 192Q529 228 513 260T466 313T387 334H240Q180 334 138 358T74 424T52 513Q52 561 74 604T139 673T243 700H532V656H246Q200 656 168 636T118 583T101 516Q101 483 116 451T163
399T241 379H389Q451 379 493 354T556 288T577 197Q577 146 556 101T491 28T386 0H76Z" />
<glyph unicode="T" horiz-adv-x="573" d="M424 0Q373 0 337 20T281 78T262 165V656H31V700H542V656H311V158Q311 107 341 76T425 44H467V0H424Z" />
<glyph unicode="U" horiz-adv-x="690" d="M346 -13Q269 -13 209 21T115 118T81 266V700H130V256Q130 195 156 144T230 63T346 32Q412 32 460 62T535 144T561 256V700H609V266Q609 181 576 118T483 21T346 -13Z" />
<glyph unicode="V" horiz-adv-x="662" d="M330 -13Q304 -13 286 3T254 56L4 700H56L293 75Q300 56 307 44T330 32Q345 32 352 44T368 75L607 700H658L407 56Q393 19 375 3T330 -13Z" />
<glyph unicode="W" horiz-adv-x="1141" d="M338 -13Q262 -13 204 18T113 109T80 248V700H129V244Q129 186 154 138T226 60T338 31Q402 31 448 60T521 137T547 244V700H595V244Q595 186 620 138T693 60T804 31Q868 31 915 60T987 137T1012 244V700H1061V248Q1061
168 1029 109T938 19T804 -13Q753 -13 706 4T623 57T571 149Q555 93 519 58T436 5T338 -13Z" />
<glyph unicode="X" horiz-adv-x="663" d="M60 0L299 343Q241 351 192 381T112 465T82 589V700H131V577Q131 528 156 484T226 412T328 383L548 700H604L381 381Q457 375 507 343T582 261T607 149V0H558V154Q558 234 504 285T351 339L116 0H60Z" />
<glyph unicode="Y" horiz-adv-x="690" d="M320 0V212Q240 218 187 256T108 357T81 492V699H130V485Q130 424 154 372T227 287T346 254Q416 254 463 286T536 371T561 485V699H609V492Q609 419 583 357T503 256T369 212V0H320Z" />
<glyph unicode="Z" horiz-adv-x="618" d="M191 0Q129 0 94 38T59 126Q59 167 77 192T134 247L452 489Q484 512 496 531T508 579Q508 598 498 615T471 644T432 656H86V700H429Q470 700 499 683T543 638T558 578Q558 535 539 507T481 450L168 211Q145 194 132 182T114
157T108 123Q108 105 118 87T148 56T192 44H554V0H191Z" />
<glyph unicode="[" horiz-adv-x="307" d="M82 -180V730H291V686H129V-136H291V-180H82Z" />
<glyph unicode="\" horiz-adv-x="308" d="M291 -100L-15 730H31L337 -100H291Z" />
<glyph unicode="]" horiz-adv-x="307" d="M16 -180V-136H178V686H16V730H225V-180H16Z" />
<glyph unicode="^" horiz-adv-x="570" d="M74 376L261 730H307L494 376H447L284 687L120 376H74Z" />
<glyph unicode="_" horiz-adv-x="500" d="M0 -89V-51H500V-89H0Z" />
<glyph unicode="`" horiz-adv-x="205" d="M95 757L-5 880H43L143 757H95Z" />
<glyph unicode="a" horiz-adv-x="653" d="M304 -13Q226 -13 170 22T85 119T55 256Q55 331 86 391T177 487T318 522Q395 522 452 488T540 395T572 262V0H525V123H522Q508 92 479 61T406 8T304 -13ZM312 28Q373 28 421 57T496 139T524 258Q524 322 499 372T426 452T316
481Q250 481 203 451T130 369T104 251Q104 190 128 139T199 58T312 28Z" />
<glyph unicode="b" horiz-adv-x="645" d="M334 -13Q268 -13 210 17T116 106T80 251V730H127V391H130Q148 429 179 458T252 505T339 522Q406 522 463 491T555 400T590 257Q590 191 569 141T512 56T430 5T334 -13ZM333 29Q387 29 434 55T512 131T542 255Q542 325
513 375T436 453T335 480Q282 480 235 454T158 378T128 253Q128 180 157 130T233 55T333 29Z" />
<glyph unicode="c" horiz-adv-x="420" d="M330 0Q251 0 189 34T91 125T55 255Q55 327 91 384T189 476T330 510H386V468H324Q264 468 214 440T134 363T103 255Q103 195 133 147T214 71T324 42H386V0H330Z" />
<glyph unicode="d" horiz-adv-x="645" d="M311 -13Q261 -13 215 4T133 56T76 140T55 257Q55 341 90 400T182 490T306 522Q351 522 392 505T466 459T515 391H518V730H565V251Q565 165 529 106T436 17T311 -13ZM312 29Q365 29 412 54T488 130T517 253Q517 327 488
377T411 454T310 480Q256 480 209 453T133 376T103 255Q103 182 133 132T210 55T312 29Z" />
<glyph unicode="e" horiz-adv-x="577" d="M341 0Q261 0 196 29T93 116T55 255Q55 326 84 387T166 485T293 522Q365 522 416 490T495 404T523 281Q523 270 523 259T520 237H105Q107 174 139 130T223 64T335 42H460V0H341ZM105 274H474Q475 294 472 321T457 375T426
427T372 466T291 481Q248 481 214 463T155 415T118 348T105 274Z" />
<glyph unicode="f" horiz-adv-x="379" d="M108 0V468H18V510H108V585Q108 653 146 691T253 730H359V688H263Q209 688 182 659T155 576V510H341V468H155V0H108Z" />
<glyph unicode="g" horiz-adv-x="647" d="M159 -203V-161H396Q456 -161 488 -127T520 -33V121H517Q502 90 472 60T400 9T302 -11Q226 -11 171 24T85 119T55 256Q55 331 85 391T173 486T310 521Q386 521 444 487T534 395T567 259V-42Q567 -115 524 -159T406 -203H159ZM308
31Q369 31 417 60T492 140T520 257Q520 321 494 371T420 450T309 479Q245 479 199 450T128 369T103 251Q103 190 127 140T198 61T308 31Z" />
<glyph unicode="h" horiz-adv-x="633" d="M81 0V730H128V414Q158 468 210 495T322 523Q384 523 436 497T520 420T552 298L551 0H504V295Q504 355 477 396T407 459T316 481Q269 481 226 460T156 398T128 295V0H81Z" />
<glyph unicode="i" horiz-adv-x="209" d="M81 0V510H129V0H81ZM106 868Q91 868 80 879T68 906Q68 922 79 933T106 944Q121 944 132 933T144 906Q144 891 133 880T106 868Z" />
<glyph unicode="j" horiz-adv-x="209" d="M-78 -128L-77 -86H-27Q28 -86 54 -57T81 26V510H129V17Q129 -50 90 -89T-17 -128H-78ZM105 868Q90 868 79 879T67 906Q67 922 78 933T105 944Q120 944 131 933T143 906Q143 891 132 880T105 868Z" />
<glyph unicode="k" horiz-adv-x="616" d="M81 0V730H128V277H327L472 510H526L376 271Q455 255 499 196T544 54V0H497V54Q497 107 475 147T412 212T316 236H128V0H81Z" />
<glyph unicode="l" horiz-adv-x="209" d="M81 0V730H128V0H81Z" />
<glyph unicode="m" horiz-adv-x="973" d="M81 0V310Q81 369 106 417T179 493T292 522Q326 522 364 511T436 472T485 389H486Q504 443 537 471T609 511T682 522Q747 522 794 494T867 417T892 310V0H845V310Q845 360 824 398T765 458T681 481Q633 481 594 458T533
397T510 310V0H462V310Q462 358 440 396T379 458T291 481Q245 481 208 459T149 398T128 310V0H81Z" />
<glyph unicode="n" horiz-adv-x="617" d="M81 0V298Q81 370 113 420T197 496T308 523Q369 523 420 497T504 420T536 298V0H488V295Q488 355 463 396T396 459T308 481Q262 481 221 460T154 398T128 295V0H81Z" />
<glyph unicode="o" horiz-adv-x="633" d="M316 -13Q240 -13 181 22T89 119T55 255Q55 330 88 391T181 487T316 523Q393 523 452 488T544 392T578 255Q578 180 545 119T452 23T316 -13ZM316 29Q379 29 427 59T502 140T530 255Q530 319 503 370T427 451T316 481Q254
481 206 451T130 370T103 255Q103 191 130 140T205 59T316 29Z" />
<glyph unicode="p" horiz-adv-x="645" d="M334 523Q384 523 430 506T512 454T569 370T590 253Q590 170 555 111T463 20T339 -12Q294 -12 253 5T180 52T130 119H127V-220H80V259Q80 346 116 404T210 493T334 523ZM333 481Q280 481 233 456T157 380T128 257Q128
183 157 133T234 56T335 30Q389 30 436 57T512 134T542 255Q542 328 512 378T435 455T333 481Z" />
<glyph unicode="q" horiz-adv-x="633" d="M293 -203V-2H340V-203H293ZM316 -13Q240 -13 181 22T89 119T55 255Q55 330 88 391T181 487T316 523Q393 523 452 488T544 392T578 255Q578 180 545 119T452 23T316 -13ZM316 29Q379 29 427 59T502 140T530 255Q530 319
503 370T427 451T316 481Q254 481 206 451T130 370T103 255Q103 191 130 140T205 59T316 29Z" />
<glyph unicode="r" horiz-adv-x="309" d="M80 0V365Q80 433 118 471T225 510H295V468H235Q182 468 155 439T127 356V0H80Z" />
<glyph unicode="s" horiz-adv-x="518" d="M65 0V42H303Q340 42 365 57T403 98T416 150Q416 174 405 196T372 232T314 246H204Q155 246 121 263T70 309T53 375Q53 410 69 441T118 491T194 510H423V468H199Q152 468 127 440T102 377Q102 343 127 317T206 290H307Q361
290 396 272T448 222T466 152Q466 114 447 80T395 23T314 0H65Z" />
<glyph unicode="t" horiz-adv-x="396" d="M252 0Q184 0 146 39T107 145V638H155V154Q155 100 182 71T263 42H357V0H252ZM18 468V510H360V468H18Z" />
<glyph unicode="u" horiz-adv-x="619" d="M309 -13Q250 -13 198 13T113 90T81 212V510H129V215Q129 155 155 113T222 50T308 29Q355 29 396 50T464 113T490 215V510H538V212Q538 140 506 90T422 14T309 -13Z" />
<glyph unicode="v" horiz-adv-x="578" d="M289 -12Q265 -12 247 3T215 51L30 509H84L260 64Q267 48 274 41T290 34Q299 34 304 41T317 64L495 509H548L362 50Q348 17 331 3T289 -12Z" />
<glyph unicode="w" horiz-adv-x="970" d="M233 -13Q191 -13 157 4T102 58T81 155V510H128V143Q128 102 143 77T182 41T232 29Q258 29 282 41T321 78T337 143V363Q337 421 358 456T412 507T485 523Q523 523 557 507T611 456T632 363V143Q632 103 647 78T686 41T738
29Q765 29 788 41T826 78T841 143V510H889V155Q889 95 869 58T814 4T738 -13Q696 -13 661 4T606 58T585 155V371Q585 412 570 436T533 471T485 481Q459 481 437 471T400 437T385 371V155Q385 95 364 58T309 4T233 -13Z" />
<glyph unicode="x" d="M56 0L253 248Q198 258 155 288T86 363T60 458V509H107V458Q107 410 134 371T206 309T302 283L480 509H534L349 274Q406 261 449 230T518 153T543 52V0H495V52Q495 103 470 143T402 208T301 240L112 0H56Z" />
<glyph unicode="y" horiz-adv-x="618" d="M285 -203V-11Q231 -7 185 20T110 96T81 212V510H129V215Q129 155 155 113T222 50T308 29Q355 29 396 50T464 113T491 215V510H537V212Q537 144 509 96T434 21T333 -11V-203H285Z" />
<glyph unicode="z" horiz-adv-x="516" d="M139 0Q110 0 88 13T52 48T39 96Q39 128 53 150T102 193L363 351Q389 367 396 382T404 415Q404 435 388 451T345 468H64V510H361Q389 510 411 497T445 462T458 414Q458 383 444 360T397 317L136 159Q109 143 102 128T94
95Q94 75 110 59T155 42H451V0H139Z" />
<glyph unicode="{" horiz-adv-x="351" d="M262 -180Q209 -180 180 -148T150 -58V183Q150 204 140 223T112 254T70 266H40V310H70Q105 310 127 335T150 393V616Q150 670 179 700T262 730H335V686H265Q235 686 216 667T197 614V395Q197 379 190 357T166 315T126
288Q151 280 166 261T189 220T197 181V-60Q197 -94 216 -115T265 -136H335V-180H262Z" />
<glyph unicode="|" horiz-adv-x="211" d="M82 -180V730H129V-180H82Z" />
<glyph unicode="}" horiz-adv-x="351" d="M16 -180V-136H86Q117 -136 136 -115T155 -60V181Q155 198 162 219T185 260T225 288Q201 296 186 315T163 356T155 395V614Q155 647 136 666T86 686H16V730H90Q142 730 172 700T202 616V393Q202 361 224 336T281 310H311V266H281Q259
266 241 254T212 223T202 183V-58Q202 -115 172 -147T90 -180H16Z" />
<glyph unicode="~" horiz-adv-x="576" d="M374 294Q342 294 316 304T267 329T221 353T174 363Q147 363 123 352T69 314L44 345Q74 373 105 389T172 406Q202 406 227 396T275 372T323 347T375 336Q402 336 425 347T470 375T509 409L534 378Q487 335 451 315T374 294Z" />
<glyph unicode="&#xa0;" horiz-adv-x="265" />
<glyph unicode="&#xa1;" horiz-adv-x="235" d="M93 -192V299H141V-192H93ZM117 518Q128 518 137 513T151 498T157 479Q157 463 146 451T117 439Q102 439 90 451T78 479Q78 495 90 506T117 518Z" />
<glyph unicode="&#xa2;" horiz-adv-x="409" d="M243 -119V20L281 15V-119H243ZM243 489V629H281V495L243 489ZM330 0Q251 0 189 34T91 125T55 255Q55 327 91 384T189 476T330 510H386V468H324Q264 468 214 440T134 363T103 255Q103 195 133 147T214 71T324 42H386V0H330Z" />
<glyph unicode="&#xa3;" horiz-adv-x="596" d="M80 0V44H191V511Q191 567 213 609T275 675T368 699H506V656H368Q311 656 275 617T239 514V44H541V0H80ZM80 345V389H434V345H80Z" />
<glyph unicode="&#xa4;" horiz-adv-x="667" d="M89 39L57 71L138 152Q110 185 93 226T76 317Q76 365 92 406T136 479L60 554L93 587L167 511Q201 540 244 556T331 572Q381 572 423 555T498 510L579 590L610 557L529 477Q589 408 589 317Q589 272 573 230T527 154L610
73L578 39L495 122Q462 95 421 79T331 63Q240 63 171 121L89 39ZM331 107Q389 107 437 135T514 211T543 317Q543 376 514 423T437 499T331 528Q273 528 226 500T150 423T122 317Q122 262 148 214T221 137T331 107Z" />
<glyph unicode="&#xa5;" horiz-adv-x="703" d="M327 0V136H45V174H327V259Q292 262 262 271T208 295H45V333H163Q125 371 107 424T88 539V700H136V532Q136 471 161 419T234 334T352 301Q422 301 470 333T542 418T567 532V700H616V539Q616 478 598 425T540 333H659V295H495Q471
280 441 271T375 259V174H659V136H375V0H327Z" />
<glyph unicode="&#xa6;" horiz-adv-x="211" d="M82 331V730H129V331H82ZM82 -180V219H129V-180H82Z" />
<glyph unicode="&#xa7;" horiz-adv-x="625" d="M151 -157V-115H342Q386 -115 414 -98T457 -53T471 4Q471 30 459 57T421 104T353 123H205Q156 123 123 145T74 202T57 276Q57 307 68 336T103 387T165 418Q131 436 115 469T98 539Q98 580 116 616T174 676T274 700H464V658H274Q230
658 202 641T159 597T145 539Q145 511 156 486T191 444T249 427H420Q469 427 502 405T551 349T568 274Q568 241 555 210T516 157T448 129Q483 110 500 76T517 4Q517 -36 499 -73T442 -133T342 -157H151ZM213 165H416Q450 165 473 181T509 222T521 275Q521 303 509
328T473 369T412 385H209Q175 385 152 369T117 328T105 275Q105 248 117 223T153 181T213 165Z" />
<glyph unicode="&#xa8;" horiz-adv-x="356" d="M260 820Q245 820 235 830T225 855Q225 870 235 880T260 890Q274 890 284 880T295 855Q295 841 285 831T260 820ZM95 820Q80 820 70 830T60 855Q60 870 70 880T95 890Q109 890 119 880T130 855Q130 841 120 831T95 820Z" />
<glyph unicode="&#xa9;" horiz-adv-x="869" d="M435 -34Q356 -34 288 -5T167 76T86 196T57 344Q57 423 86 491T167 611T287 692T435 722Q514 722 582 693T702 612T783 492T812 344Q812 265 783 197T703 77T583 -4T435 -34ZM435 -1Q507 -1 569 26T679 100T753 210T780
344Q780 416 753 478T679 588T570 662T435 689Q364 689 301 663T191 589T118 479T91 345Q91 273 117 211T191 101T301 26T435 -1ZM468 151Q412 152 367 177T297 244T272 341Q273 394 298 437T367 504T467 529H519V493H463Q422 493 387 473T332 418T311 340Q311
298 331 264T387 209T463 188H519V151H468Z" />
<glyph unicode="&#xaa;" horiz-adv-x="430" d="M212 387Q164 387 129 408T76 467T57 550Q57 596 76 632T130 691T216 713Q265 713 300 692T353 635T373 553V392H331V457H330Q312 423 284 405T212 387ZM216 423Q263 423 297 457T331 550Q331 603 301 639T216 676Q160
676 130 640T99 550Q99 497 129 460T216 423Z" />
<glyph unicode="&#xab;" horiz-adv-x="516" d="M392 119L240 314L392 510H442L291 314L442 119H392ZM206 119L54 314L206 510H256L105 314L256 119H206Z" />
<glyph unicode="&#xac;" horiz-adv-x="559" d="M475 167V284H40V326H519V167H475Z" />
<glyph unicode="&#xad;" horiz-adv-x="363" d="M40 244V288H323V244H40Z" />
<glyph unicode="&#xae;" horiz-adv-x="869" d="M435 -34Q356 -34 288 -5T167 76T86 196T57 344Q57 423 86 491T167 611T287 692T435 722Q514 722 582 693T702 612T783 492T812 344Q812 265 783 197T703 77T583 -4T435 -34ZM435 -1Q507 -1 569 26T679 100T753 210T780
344Q780 416 753 478T679 588T570 662T435 689Q364 689 301 663T191 589T118 479T91 345Q91 273 117 211T191 101T301 26T435 -1ZM302 150V529H462Q499 529 527 514T572 471T589 409Q589 374 569 342T505 298L558 200Q563 191 570 187T588 183H609V150H585Q567
150 551 158T525 183L469 288H340V150H302ZM340 323H460Q495 323 523 346T551 412Q551 447 524 470T459 494H340V323Z" />
<glyph unicode="&#xaf;" horiz-adv-x="290" d="M3 600V636H287V600H3Z" />
<glyph unicode="&#xb0;" horiz-adv-x="420" d="M210 404Q168 404 133 425T77 481T56 559Q56 601 77 636T133 692T210 713Q253 713 288 692T343 636T364 559Q364 517 344 482T288 425T210 404ZM210 441Q242 441 268 457T309 499T325 559Q325 591 310 617T268 659T210
675Q178 675 152 660T110 618T94 559Q94 526 109 500T151 457T210 441Z" />
<glyph unicode="&#xb1;" horiz-adv-x="539" d="M247 224V403H50V445H247V625H293V445H489V403H293V224H247ZM50 36V79H489V36H50Z" />
<glyph unicode="&#xb2;" horiz-adv-x="429" d="M144 280Q115 280 95 291T65 318T55 354Q55 372 65 390T95 420L280 525Q300 536 310 554T320 592Q320 620 300 642T242 665H78V700H241Q279 700 305 685T346 645T360 592Q360 564 347 539T306 498L119 391Q95 378
95 356Q95 341 108 329T145 316H367V280H144Z" />
<glyph unicode="&#xb3;" horiz-adv-x="425" d="M58 280V316H243Q281 316 301 338T322 392Q322 426 300 451T239 476H83V512H243Q272 512 295 534T319 589Q319 623 297 644T245 665H58V700H249Q281 700 306 685T345 645T360 589Q360 560 345 535T297 493Q329 481
346 453T363 393Q363 364 350 338T311 296T250 280H58Z" />
<glyph unicode="&#xb4;" horiz-adv-x="205" d="M37 757L137 880H186L86 757H37Z" />
<glyph unicode="&#xb5;" horiz-adv-x="619" d="M81 -203V510H129V215Q129 155 155 113T222 50T308 29Q355 29 396 50T464 113T490 215V510H538V212Q538 140 507 90T423 14T311 -13Q275 -13 239 -2T174 33T129 91V-203H81Z" />
<glyph unicode="&#xb6;" horiz-adv-x="652" d="M301 -203V241Q222 242 167 277T85 366T57 478Q57 536 84 586T167 668T306 700H610V663H531V-203H492V663H341V-203H301Z" />
<glyph unicode="&#xb7;" horiz-adv-x="266" d="M134 311Q118 311 106 322T94 350Q94 366 106 377T134 389Q150 389 161 378T173 350Q173 334 162 323T134 311Z" />
<glyph unicode="&#xb8;" horiz-adv-x="204" d="M16 -203L107 16H156L63 -203H16Z" />
<glyph unicode="&#xb9;" horiz-adv-x="373" d="M62 280V316H173V665H70V700H214V316H315V280H62Z" />
<glyph unicode="&#xba;" horiz-adv-x="432" d="M217 387Q168 387 132 408T77 465T57 545Q57 589 76 626T132 684T217 706H411V670H311Q345 650 360 617T375 545Q375 499 355 463T299 407T217 387ZM217 423Q267 423 300 457T333 545Q333 597 302 633T217 670Q161
670 130 634T99 545Q99 496 130 460T217 423Z" />
<glyph unicode="&#xbb;" horiz-adv-x="504" d="M260 119L411 314L260 510H310L462 314L310 119H260ZM42 119L193 314L42 510H92L244 314L92 119H42Z" />
<glyph unicode="&#xbc;" horiz-adv-x="1003" d="M822 0V99H657Q623 99 602 120T580 172Q580 183 583 194T593 216L712 420H757L627 202Q619 189 619 175Q619 159 631 147T665 135H822V285H862V135H941V99H862V0H822ZM62 280V316H173V665H70V700H214V316H315V280H62ZM207
0L696 700H741L252 0H207Z" />
<glyph unicode="&#xbd;" horiz-adv-x="1041" d="M62 280V316H173V665H70V700H214V316H315V280H62ZM219 0L708 700H753L264 0H219ZM746 33Q717 33 697 44T667 71T657 107Q657 125 667 143T697 173L882 278Q902 289 912 307T922 345Q922 373 902 395T844 418H680V453H843Q881
453 907 438T948 398T962 345Q962 317 949 292T908 251L721 144Q697 131 697 109Q697 94 710 82T747 69H969V33H746Z" />
<glyph unicode="&#xbe;" horiz-adv-x="1049" d="M868 0V99H702Q669 99 647 120T625 172Q625 183 628 194T638 216L758 420H803L673 202Q665 189 665 175Q665 159 676 147T710 135H868V285H908V135H987V99H908V0H868ZM58 280V316H243Q281 316 301 338T322 392Q322
426 300 451T239 476H83V512H243Q272 512 295 534T319 589Q319 623 297 644T245 665H58V700H249Q281 700 306 685T345 645T360 589Q360 560 345 535T297 493Q329 481 346 453T363 393Q363 364 350 338T311 296T250 280H58ZM249 0L739 700H784L295 0H249Z" />
<glyph unicode="&#xbf;" horiz-adv-x="391" d="M289 -190Q204 -190 145 -156T56 -68T25 47Q25 107 55 160T144 248T289 282V239Q218 239 170 211T98 139T74 45Q74 -4 98 -48T170 -120T289 -148H343V-190H289ZM266 518Q283 518 294 507T306 479Q306 463 295 451T266
439Q251 439 239 451T227 479Q227 489 232 498T247 512T266 518Z" />
<glyph unicode="&#xc0;" horiz-adv-x="670" d="M4 0L253 644Q267 681 286 697T334 713Q362 713 382 698T415 645L666 0H613L536 198H132L56 0H4ZM148 241H521L372 628Q365 647 357 658T334 669Q319 669 312 659T296 628L148 241ZM304 757L204 880H252L352 757H304Z" />
<glyph unicode="&#xc1;" horiz-adv-x="670" d="M4 0L253 644Q267 681 286 697T334 713Q362 713 382 698T415 645L666 0H613L536 198H132L56 0H4ZM148 241H521L372 628Q365 647 357 658T334 669Q319 669 312 659T296 628L148 241ZM321 757L421 880H470L370 757H321Z" />
<glyph unicode="&#xc2;" horiz-adv-x="670" d="M4 0L253 644Q267 681 286 697T334 713Q362 713 382 698T415 645L666 0H613L536 198H132L56 0H4ZM148 241H521L372 628Q365 647 357 658T334 669Q319 669 312 659T296 628L148 241ZM205 757L305 880H366L466 757H421L335
859L249 757H205Z" />
<glyph unicode="&#xc3;" horiz-adv-x="670" d="M4 0L253 644Q267 681 286 697T334 713Q362 713 382 698T415 645L666 0H613L536 198H132L56 0H4ZM148 241H521L372 628Q365 647 357 658T334 669Q319 669 312 659T296 628L148 241ZM408 747Q382 747 366 756T338
780T317 808Q307 824 294 836T260 849Q241 849 226 831T211 780V757H175V780Q175 830 201 857T261 884Q296 884 315 867T347 830Q359 812 372 797T409 782Q429 782 444 799T459 851V874H495V852Q495 801 469 774T408 747Z" />
<glyph unicode="&#xc4;" horiz-adv-x="670" d="M418 764Q403 764 393 774T383 799Q383 814 393 824T418 834Q432 834 442 824T453 799Q453 785 443 775T418 764ZM253 764Q238 764 228 774T218 799Q218 814 228 824T253 834Q267 834 277 824T288 799Q288 785 278
775T253 764ZM4 0L253 644Q267 681 286 697T334 713Q362 713 382 698T415 645L666 0H613L536 198H132L56 0H4ZM148 241H521L372 628Q365 647 357 658T334 669Q319 669 312 659T296 628L148 241Z" />
<glyph unicode="&#xc5;" horiz-adv-x="670" d="M4 0L253 644Q267 681 286 697T334 713Q362 713 382 698T415 645L666 0H613L536 198H132L56 0H4ZM148 241H521L372 628Q365 647 357 658T334 669Q319 669 312 659T296 628L148 241ZM334 752Q294 752 267 779T239
847Q239 887 266 914T334 942Q374 942 401 915T429 847Q429 807 402 780T334 752ZM334 781Q361 781 380 800T399 847Q399 875 380 894T334 913Q307 913 288 894T269 847Q269 819 288 800T334 781Z" />
<glyph unicode="&#xc6;" horiz-adv-x="944" d="M4 0L253 644Q267 681 286 697T334 713Q360 713 378 699T412 651L443 574Q444 609 463 637T520 683T609 700H924V656H607Q550 656 517 630T475 563T482 473L520 378H883V335H536L624 110Q635 82 660 63T723 44H924V0H714Q665
0 631 24T582 84L537 198H132L56 0H4ZM148 241H521L372 628Q365 647 357 658T334 669Q319 669 312 659T296 628L148 241Z" />
<glyph unicode="&#xc7;" horiz-adv-x="538" d="M387 0Q309 0 243 27T130 103T56 215T30 351Q30 423 56 486T129 597T243 672T387 700H459V656H390Q325 656 269 633T170 568T105 472T81 351Q81 285 104 230T170 133T268 68T390 44H459V0H387ZM241 -203L332 16H381L288
-203H241Z" />
<glyph unicode="&#xc8;" horiz-adv-x="554" d="M240 0Q182 0 141 27T77 97T55 187Q55 241 82 288T165 355Q111 380 86 423T60 514Q60 565 84 607T149 674T240 699H506V656H246Q205 656 175 637T127 586T109 514Q109 477 127 446T178 397T250 378H467V335H257Q207
335 173 314T122 258T104 187Q104 150 120 118T169 65T249 44H506V0H240ZM299 757L199 880H247L347 757H299Z" />
<glyph unicode="&#xc9;" horiz-adv-x="554" d="M240 0Q182 0 141 27T77 97T55 187Q55 241 82 288T165 355Q111 380 86 423T60 514Q60 565 84 607T149 674T240 699H506V656H246Q205 656 175 637T127 586T109 514Q109 477 127 446T178 397T250 378H467V335H257Q207
335 173 314T122 258T104 187Q104 150 120 118T169 65T249 44H506V0H240ZM284 757L384 880H433L333 757H284Z" />
<glyph unicode="&#xca;" horiz-adv-x="554" d="M240 0Q182 0 141 27T77 97T55 187Q55 241 82 288T165 355Q111 380 86 423T60 514Q60 565 84 607T149 674T240 699H506V656H246Q205 656 175 637T127 586T109 514Q109 477 127 446T178 397T250 378H467V335H257Q207
335 173 314T122 258T104 187Q104 150 120 118T169 65T249 44H506V0H240ZM192 757L292 880H353L453 757H408L322 859L236 757H192Z" />
<glyph unicode="&#xcb;" horiz-adv-x="554" d="M406 764Q391 764 381 774T371 799Q371 814 381 824T406 834Q420 834 430 824T441 799Q441 785 431 775T406 764ZM241 764Q226 764 216 774T206 799Q206 814 216 824T241 834Q255 834 265 824T276 799Q276 785 266
775T241 764ZM240 0Q182 0 141 27T77 97T55 187Q55 241 82 288T165 355Q111 380 86 423T60 514Q60 565 84 607T149 674T240 699H506V656H246Q205 656 175 637T127 586T109 514Q109 477 127 446T178 397T250 378H467V335H257Q207 335 173 314T122 258T104 187Q104
150 120 118T169 65T249 44H506V0H240Z" />
<glyph unicode="&#xcc;" horiz-adv-x="439" d="M52 0V44H196V656H52V700H387V656H244V44H387V0H52ZM199 757L99 880H147L247 757H199Z" />
<glyph unicode="&#xcd;" horiz-adv-x="439" d="M52 0V44H196V656H52V700H387V656H244V44H387V0H52ZM210 758L310 881H359L259 758H210Z" />
<glyph unicode="&#xce;" horiz-adv-x="439" d="M52 0V44H196V656H52V700H387V656H244V44H387V0H52ZM89 757L189 880H250L350 757H305L219 859L133 757H89Z" />
<glyph unicode="&#xcf;" horiz-adv-x="439" d="M302 764Q288 764 278 774T267 799Q267 814 277 824T302 834Q316 834 326 824T337 799Q337 785 327 775T302 764ZM137 764Q123 764 113 774T102 799Q102 814 112 824T137 834Q151 834 161 824T172 799Q172 785 162
775T137 764ZM52 0V44H196V656H52V700H387V656H244V44H387V0H52Z" />
<glyph unicode="&#xd0;" horiz-adv-x="712" d="M82 0V335H0V378H82V700H295Q405 700 486 655T613 532T658 351Q658 249 613 170T487 45T295 0H82ZM131 44H296Q386 44 457 81T568 186T609 351Q609 446 569 514T457 619T296 656H131V378H318V335H131V44Z" />
<glyph unicode="&#xd1;" horiz-adv-x="794" d="M548 -13Q498 -13 460 10T399 73T377 167V542Q377 578 360 607T315 652T253 669Q219 669 191 653T146 607T129 542V0H80V533Q80 586 102 626T163 690T253 713Q303 713 342 690T403 627T426 533V158Q426 121 443 93T487
48T548 31Q580 31 607 47T650 92T666 158V700H714V167Q714 114 693 74T635 10T548 -13ZM485 747Q459 747 443 756T415 780T394 808Q384 824 371 836T337 849Q318 849 303 831T288 780V757H252V780Q252 830 278 857T338 884Q373 884 392 867T424 830Q436 812 449
797T486 782Q506 782 521 799T536 851V874H572V852Q572 801 546 774T485 747Z" />
<glyph unicode="&#xd2;" horiz-adv-x="829" d="M415 -13Q333 -13 267 15T153 93T80 209T54 350Q54 425 79 491T152 607T266 685T415 713Q497 713 563 685T677 607T749 491T775 350Q775 275 750 209T677 93T564 15T415 -13ZM415 31Q482 31 539 55T638 122T703 223T727
350Q727 419 704 477T638 578T539 645T415 669Q347 669 290 646T191 579T126 477T103 350Q103 282 126 224T191 122T290 55T415 31ZM398 757L298 880H346L446 757H398Z" />
<glyph unicode="&#xd3;" horiz-adv-x="829" d="M415 -13Q333 -13 267 15T153 93T80 209T54 350Q54 425 79 491T152 607T266 685T415 713Q497 713 563 685T677 607T749 491T775 350Q775 275 750 209T677 93T564 15T415 -13ZM415 31Q482 31 539 55T638 122T703 223T727
350Q727 419 704 477T638 578T539 645T415 669Q347 669 290 646T191 579T126 477T103 350Q103 282 126 224T191 122T290 55T415 31ZM396 757L496 880H545L445 757H396Z" />
<glyph unicode="&#xd4;" horiz-adv-x="829" d="M415 -13Q333 -13 267 15T153 93T80 209T54 350Q54 425 79 491T152 607T266 685T415 713Q497 713 563 685T677 607T749 491T775 350Q775 275 750 209T677 93T564 15T415 -13ZM415 31Q482 31 539 55T638 122T703 223T727
350Q727 419 704 477T638 578T539 645T415 669Q347 669 290 646T191 579T126 477T103 350Q103 282 126 224T191 122T290 55T415 31ZM283 757L383 880H444L544 757H499L413 859L327 757H283Z" />
<glyph unicode="&#xd5;" horiz-adv-x="829" d="M415 -13Q333 -13 267 15T153 93T80 209T54 350Q54 425 79 491T152 607T266 685T415 713Q497 713 563 685T677 607T749 491T775 350Q775 275 750 209T677 93T564 15T415 -13ZM415 31Q482 31 539 55T638 122T703 223T727
350Q727 419 704 477T638 578T539 645T415 669Q347 669 290 646T191 579T126 477T103 350Q103 282 126 224T191 122T290 55T415 31ZM486 747Q460 747 444 756T416 780T395 808Q385 824 372 836T338 849Q319 849 304 831T289 780V757H253V780Q253 830 279 857T339
884Q374 884 393 867T425 830Q437 812 450 797T487 782Q507 782 522 799T537 851V874H573V852Q573 801 547 774T486 747Z" />
<glyph unicode="&#xd6;" horiz-adv-x="829" d="M497 764Q483 764 473 774T462 799Q462 814 472 824T497 834Q511 834 521 824T532 799Q532 785 522 775T497 764ZM332 764Q318 764 308 774T297 799Q297 814 307 824T332 834Q346 834 356 824T367 799Q367 785 357
775T332 764ZM415 -13Q333 -13 267 15T153 93T80 209T54 350Q54 425 79 491T152 607T266 685T415 713Q497 713 563 685T677 607T749 491T775 350Q775 275 750 209T677 93T564 15T415 -13ZM415 31Q482 31 539 55T638 122T703 223T727 350Q727 419 704 477T638 578T539
645T415 669Q347 669 290 646T191 579T126 477T103 350Q103 282 126 224T191 122T290 55T415 31Z" />
<glyph unicode="&#xd7;" horiz-adv-x="512" d="M86 144L55 175L226 346L56 516L86 547L257 377L427 547L458 516L288 346L458 175L427 144L257 315L86 144Z" />
<glyph unicode="&#xd8;" horiz-adv-x="829" d="M415 -13Q342 -13 281 10T174 75L100 0H48L146 102Q102 151 78 214T54 350Q54 425 79 491T152 607T266 685T415 713Q487 713 548 690T654 625L729 701H783L683 598Q727 549 751 486T775 350Q775 275 750 209T677
93T564 15T415 -13ZM415 31Q482 31 539 55T638 122T703 223T727 350Q727 413 707 467T651 563L205 109Q246 72 299 52T415 31ZM178 137L623 591Q583 628 530 648T415 669Q347 669 290 645T191 578T126 477T103 350Q103 288 123 233T178 137Z" />
<glyph unicode="&#xd9;" horiz-adv-x="690" d="M346 -13Q269 -13 209 21T115 118T81 266V700H130V256Q130 195 156 144T230 63T346 32Q412 32 460 62T535 144T561 256V700H609V266Q609 181 576 118T483 21T346 -13ZM328 757L228 880H276L376 757H328Z" />
<glyph unicode="&#xda;" horiz-adv-x="690" d="M346 -13Q269 -13 209 21T115 118T81 266V700H130V256Q130 195 156 144T230 63T346 32Q412 32 460 62T535 144T561 256V700H609V266Q609 181 576 118T483 21T346 -13ZM324 757L424 880H473L373 757H324Z" />
<glyph unicode="&#xdb;" horiz-adv-x="690" d="M346 -13Q269 -13 209 21T115 118T81 266V700H130V256Q130 195 156 144T230 63T346 32Q412 32 460 62T535 144T561 256V700H609V266Q609 181 576 118T483 21T346 -13ZM215 757L315 880H376L476 757H431L345 859L259
757H215Z" />
<glyph unicode="&#xdc;" horiz-adv-x="690" d="M428 764Q413 764 403 774T393 799Q393 814 403 824T428 834Q441 834 452 824T463 799Q463 785 452 775T428 764ZM263 764Q248 764 238 774T228 799Q228 814 238 824T263 834Q276 834 287 824T298 799Q298 785 287
775T263 764ZM346 -13Q269 -13 209 21T115 118T81 266V700H130V256Q130 195 156 144T230 63T346 32Q412 32 460 62T535 144T561 256V700H609V266Q609 181 576 118T483 21T346 -13Z" />
<glyph unicode="&#xdd;" horiz-adv-x="690" d="M320 0V212Q240 218 187 256T108 357T81 492V699H130V485Q130 424 154 372T227 287T346 254Q416 254 463 286T536 371T561 485V699H609V492Q609 419 583 357T503 256T369 212V0H320ZM327 757L427 880H476L376 757H327Z" />
<glyph unicode="&#xde;" horiz-adv-x="659" d="M82 0V700H131V572H379Q442 572 493 544T575 466T606 349Q606 285 577 235T495 157T374 128H131V0H82ZM131 172H369Q422 172 464 193T532 254T558 349Q558 406 533 446T465 507T372 528H131V172Z" />
<glyph unicode="&#xdf;" horiz-adv-x="642" d="M76 0V501Q76 552 94 596T145 673T223 724T323 743Q388 743 441 719T526 651T558 548Q558 512 544 479T497 420T414 383Q471 370 509 341T566 275T586 200Q586 149 561 103T489 29T379 0H282V42H369Q423 42 460 64T517
123T537 198Q537 239 514 275T446 335T336 359H320V401H334Q389 402 428 420T489 471T511 544Q511 592 485 627T417 682T323 701Q266 701 221 676T149 604T122 494V0H76Z" />
<glyph unicode="&#xe0;" horiz-adv-x="638" d="M304 -13Q226 -13 170 22T85 119T55 256Q55 331 86 391T177 487T318 522Q395 522 452 488T540 395T572 262V0H525V123H522Q508 92 479 61T406 8T304 -13ZM312 28Q373 28 421 57T496 139T524 258Q524 322 499 372T426
452T316 481Q250 481 203 451T130 369T104 251Q104 190 128 139T199 58T312 28ZM289 577L189 700H237L337 577H289Z" />
<glyph unicode="&#xe1;" horiz-adv-x="638" d="M304 -13Q226 -13 170 22T85 119T55 256Q55 331 86 391T177 487T318 522Q395 522 452 488T540 395T572 262V0H525V123H522Q508 92 479 61T406 8T304 -13ZM312 28Q373 28 421 57T496 139T524 258Q524 322 499 372T426
452T316 481Q250 481 203 451T130 369T104 251Q104 190 128 139T199 58T312 28ZM302 577L402 700H451L351 577H302Z" />
<glyph unicode="&#xe2;" horiz-adv-x="638" d="M304 -13Q226 -13 170 22T85 119T55 256Q55 331 86 391T177 487T318 522Q395 522 452 488T540 395T572 262V0H525V123H522Q508 92 479 61T406 8T304 -13ZM312 28Q373 28 421 57T496 139T524 258Q524 322 499 372T426
452T316 481Q250 481 203 451T130 369T104 251Q104 190 128 139T199 58T312 28ZM186 577L286 700H347L447 577H402L316 679L230 577H186Z" />
<glyph unicode="&#xe3;" horiz-adv-x="638" d="M304 -13Q226 -13 170 22T85 119T55 256Q55 331 86 391T177 487T318 522Q395 522 452 488T540 395T572 262V0H525V123H522Q508 92 479 61T406 8T304 -13ZM312 28Q373 28 421 57T496 139T524 258Q524 322 499 372T426
452T316 481Q250 481 203 451T130 369T104 251Q104 190 128 139T199 58T312 28ZM388 583Q362 583 346 592T318 616T297 644Q287 660 274 672T240 685Q221 685 206 667T191 616V593H155V616Q155 666 181 693T241 720Q276 720 295 703T327 666Q339 648 352 633T389
618Q409 618 424 635T439 687V710H475V688Q475 637 449 610T388 583Z" />
<glyph unicode="&#xe4;" horiz-adv-x="638" d="M403 613Q388 613 378 623T368 648Q368 662 378 672T403 683Q417 683 427 673T438 648Q438 634 428 624T403 613ZM238 613Q223 613 213 623T203 648Q203 662 213 672T238 683Q252 683 262 673T273 648Q273 634 263
624T238 613ZM304 -13Q226 -13 170 22T85 119T55 256Q55 331 86 391T177 487T318 522Q395 522 452 488T540 395T572 262V0H525V123H522Q508 92 479 61T406 8T304 -13ZM312 28Q373 28 421 57T496 139T524 258Q524 322 499 372T426 452T316 481Q250 481 203 451T130
369T104 251Q104 190 128 139T199 58T312 28Z" />
<glyph unicode="&#xe5;" horiz-adv-x="638" d="M304 -13Q226 -13 170 22T85 119T55 256Q55 331 86 391T177 487T318 522Q395 522 452 488T540 395T572 262V0H525V123H522Q508 92 479 61T406 8T304 -13ZM312 28Q373 28 421 57T496 139T524 258Q524 322 499 372T426
452T316 481Q250 481 203 451T130 369T104 251Q104 190 128 139T199 58T312 28ZM308 567Q268 567 241 594T213 662Q213 702 240 729T308 757Q348 757 375 730T403 662Q403 622 376 595T308 567ZM308 596Q335 596 354 615T373 662Q373 690 354 709T308 728Q281 728
262 709T243 662Q243 634 262 615T308 596Z" />
<glyph unicode="&#xe6;" horiz-adv-x="966" d="M181 0Q144 0 114 19T66 72T48 148Q48 192 66 222T114 269T182 286H444V375Q444 416 419 442T351 469H95V510H356Q408 510 442 477T480 391Q508 448 559 485T682 522Q753 522 804 490T883 404T911 281Q911 270 911
259T908 237H493Q495 174 527 130T611 64T724 42H848V0H730Q647 0 582 31T482 126Q478 72 442 36T348 0H181ZM190 41H345Q386 41 415 70T445 143V250H194Q146 250 121 221T95 149Q95 123 106 98T139 57T190 41ZM493 274H862Q863 294 860 321T846 375T814 427T760
466T680 481Q636 481 602 463T544 415T507 348T493 274Z" />
<glyph unicode="&#xe7;" horiz-adv-x="428" d="M330 0Q251 0 189 34T91 125T55 255Q55 327 91 384T189 476T330 510H386V468H324Q264 468 214 440T134 363T103 255Q103 195 133 147T214 71T324 42H386V0H330ZM174 -203L265 16H314L221 -203H174Z" />
<glyph unicode="&#xe8;" horiz-adv-x="577" d="M341 0Q261 0 196 29T93 116T55 255Q55 326 84 387T166 485T293 522Q365 522 416 490T495 404T523 281Q523 270 523 259T520 237H105Q107 174 139 130T223 64T335 42H460V0H341ZM105 274H474Q475 294 472 321T457
375T426 427T372 466T291 481Q248 481 214 463T155 415T118 348T105 274ZM270 577L170 700H218L318 577H270Z" />
<glyph unicode="&#xe9;" horiz-adv-x="577" d="M341 0Q261 0 196 29T93 116T55 255Q55 326 84 387T166 485T293 522Q365 522 416 490T495 404T523 281Q523 270 523 259T520 237H105Q107 174 139 130T223 64T335 42H460V0H341ZM105 274H474Q475 294 472 321T457
375T426 427T372 466T291 481Q248 481 214 463T155 415T118 348T105 274ZM278 577L378 700H427L327 577H278Z" />
<glyph unicode="&#xea;" horiz-adv-x="577" d="M341 0Q261 0 196 29T93 116T55 255Q55 326 84 387T166 485T293 522Q365 522 416 490T495 404T523 281Q523 270 523 259T520 237H105Q107 174 139 130T223 64T335 42H460V0H341ZM105 274H474Q475 294 472 321T457
375T426 427T372 466T291 481Q248 481 214 463T155 415T118 348T105 274ZM171 577L271 700H332L432 577H387L301 679L215 577H171Z" />
<glyph unicode="&#xeb;" horiz-adv-x="577" d="M383 613Q368 613 358 623T348 648Q348 662 358 672T383 683Q397 683 407 673T418 648Q418 634 408 624T383 613ZM218 613Q203 613 193 623T183 648Q183 662 193 672T218 683Q232 683 242 673T253 648Q253 634 243
624T218 613ZM341 0Q261 0 196 29T93 116T55 255Q55 326 84 387T166 485T293 522Q365 522 416 490T495 404T523 281Q523 270 523 259T520 237H105Q107 174 139 130T223 64T335 42H460V0H341ZM105 274H474Q475 294 472 321T457 375T426 427T372 466T291 481Q248
481 214 463T155 415T118 348T105 274Z" />
<glyph unicode="&#xec;" horiz-adv-x="209" d="M81 0V510H129V0H81ZM79 577L-21 700H27L127 577H79Z" />
<glyph unicode="&#xed;" horiz-adv-x="209" d="M81 0V510H129V0H81ZM72 577L172 700H221L121 577H72Z" />
<glyph unicode="&#xee;" horiz-adv-x="209" d="M81 0V510H129V0H81ZM-25 577L75 700H136L236 577H191L105 679L19 577H-25Z" />
<glyph unicode="&#xef;" horiz-adv-x="209" d="M187 614Q173 614 163 624T152 649Q152 663 162 673T187 684Q201 684 211 674T222 649Q222 635 212 625T187 614ZM22 614Q8 614 -2 624T-13 649Q-13 663 -3 673T22 684Q36 684 46 674T57 649Q57 635 47 625T22 614ZM81
0V510H129V0H81Z" />
<glyph unicode="&#xf0;" horiz-adv-x="640" d="M311 -13Q261 -13 215 4T133 56T76 140T55 255Q55 340 90 399T181 489T301 520Q336 520 368 510T426 482L427 483L339 618L174 592V625L319 648L266 730L320 732L369 656L470 672V638L389 626L511 436Q533 401 544
370T560 310T565 255Q565 167 529 107T436 17T311 -13ZM312 29Q365 29 412 54T488 130T517 253Q517 328 488 378T411 454T310 480Q256 480 209 453T133 375T103 255Q103 182 133 132T210 55T312 29Z" />
<glyph unicode="&#xf1;" horiz-adv-x="617" d="M81 0V298Q81 370 113 420T197 496T308 523Q369 523 420 497T504 420T536 298V0H488V295Q488 355 463 396T396 459T308 481Q262 481 221 460T154 398T128 295V0H81ZM390 583Q364 583 348 592T320 616T299 644Q289
660 276 672T242 685Q223 685 208 667T193 616V593H157V616Q157 666 183 693T243 720Q278 720 297 703T329 666Q341 648 354 633T391 618Q411 618 426 635T441 687V710H477V688Q477 637 451 610T390 583Z" />
<glyph unicode="&#xf2;" horiz-adv-x="633" d="M316 -13Q240 -13 181 22T89 119T55 255Q55 330 88 391T181 487T316 523Q393 523 452 488T544 392T578 255Q578 180 545 119T452 23T316 -13ZM316 29Q379 29 427 59T502 140T530 255Q530 319 503 370T427 451T316
481Q254 481 206 451T130 370T103 255Q103 191 130 140T205 59T316 29ZM289 577L189 700H237L337 577H289Z" />
<glyph unicode="&#xf3;" horiz-adv-x="633" d="M316 -13Q240 -13 181 22T89 119T55 255Q55 330 88 391T181 487T316 523Q393 523 452 488T544 392T578 255Q578 180 545 119T452 23T316 -13ZM316 29Q379 29 427 59T502 140T530 255Q530 319 503 370T427 451T316
481Q254 481 206 451T130 370T103 255Q103 191 130 140T205 59T316 29ZM303 577L403 700H452L352 577H303Z" />
<glyph unicode="&#xf4;" horiz-adv-x="633" d="M316 -13Q240 -13 181 22T89 119T55 255Q55 330 88 391T181 487T316 523Q393 523 452 488T544 392T578 255Q578 180 545 119T452 23T316 -13ZM316 29Q379 29 427 59T502 140T530 255Q530 319 503 370T427 451T316
481Q254 481 206 451T130 370T103 255Q103 191 130 140T205 59T316 29ZM187 577L287 700H348L448 577H403L317 679L231 577H187Z" />
<glyph unicode="&#xf5;" horiz-adv-x="633" d="M316 -13Q240 -13 181 22T89 119T55 255Q55 330 88 391T181 487T316 523Q393 523 452 488T544 392T578 255Q578 180 545 119T452 23T316 -13ZM316 29Q379 29 427 59T502 140T530 255Q530 319 503 370T427 451T316
481Q254 481 206 451T130 370T103 255Q103 191 130 140T205 59T316 29ZM387 583Q361 583 345 592T317 616T296 644Q286 660 273 672T239 685Q220 685 205 667T190 616V593H154V616Q154 666 180 693T240 720Q275 720 294 703T326 666Q338 648 351 633T388 618Q408
618 423 635T438 687V710H474V688Q474 637 448 610T387 583Z" />
<glyph unicode="&#xf6;" horiz-adv-x="633" d="M394 613Q379 613 369 623T359 648Q359 662 369 672T394 683Q408 683 418 673T429 648Q429 634 419 624T394 613ZM229 613Q214 613 204 623T194 648Q194 662 204 672T229 683Q243 683 253 673T264 648Q264 634 254
624T229 613ZM316 -13Q240 -13 181 22T89 119T55 255Q55 330 88 391T181 487T316 523Q393 523 452 488T544 392T578 255Q578 180 545 119T452 23T316 -13ZM316 29Q379 29 427 59T502 140T530 255Q530 319 503 370T427 451T316 481Q254 481 206 451T130 370T103
255Q103 191 130 140T205 59T316 29Z" />
<glyph unicode="&#xf7;" horiz-adv-x="595" d="M299 475Q279 475 265 489T250 523Q250 543 264 557T299 572Q318 572 332 558T347 523Q347 504 333 490T299 475ZM299 128Q279 128 265 142T250 177Q250 196 264 210T299 225Q318 225 332 211T347 177Q347 157 333
143T299 128ZM78 325V368H517V325H78Z" />
<glyph unicode="&#xf8;" horiz-adv-x="633" d="M316 -13Q266 -13 223 3T146 50L100 0H50L119 75Q88 110 72 156T55 255Q55 330 88 391T181 487T316 523Q365 523 406 509T480 467L519 510H569L508 442Q541 407 559 359T578 255Q578 180 545 119T452 23T316 -13ZM316
29Q379 29 427 59T502 140T530 255Q530 300 516 339T475 408L175 83Q203 58 238 44T316 29ZM151 109L450 434Q423 456 389 468T316 481Q254 481 206 451T130 370T103 255Q103 213 115 176T151 109Z" />
<glyph unicode="&#xf9;" horiz-adv-x="619" d="M309 -13Q250 -13 198 13T113 90T81 212V510H129V215Q129 155 155 113T222 50T308 29Q355 29 396 50T464 113T490 215V510H538V212Q538 140 506 90T422 14T309 -13ZM273 577L173 700H221L321 577H273Z" />
<glyph unicode="&#xfa;" horiz-adv-x="619" d="M309 -13Q250 -13 198 13T113 90T81 212V510H129V215Q129 155 155 113T222 50T308 29Q355 29 396 50T464 113T490 215V510H538V212Q538 140 506 90T422 14T309 -13ZM286 577L386 700H435L335 577H286Z" />
<glyph unicode="&#xfb;" horiz-adv-x="619" d="M309 -13Q250 -13 198 13T113 90T81 212V510H129V215Q129 155 155 113T222 50T308 29Q355 29 396 50T464 113T490 215V510H538V212Q538 140 506 90T422 14T309 -13ZM179 577L279 700H340L440 577H395L309 679L223 577H179Z" />
<glyph unicode="&#xfc;" horiz-adv-x="619" d="M396 613Q381 613 371 623T361 648Q361 662 371 672T396 683Q410 683 420 673T431 648Q431 634 421 624T396 613ZM231 613Q216 613 206 623T196 648Q196 662 206 672T231 683Q245 683 255 673T266 648Q266 634 256
624T231 613ZM309 -13Q250 -13 198 13T113 90T81 212V510H129V215Q129 155 155 113T222 50T308 29Q355 29 396 50T464 113T490 215V510H538V212Q538 140 506 90T422 14T309 -13Z" />
<glyph unicode="&#xfd;" horiz-adv-x="618" d="M285 -203V-11Q231 -7 185 20T110 96T81 212V510H129V215Q129 155 155 113T222 50T308 29Q355 29 396 50T464 113T491 215V510H537V212Q537 144 509 96T434 21T333 -11V-203H285ZM281 577L381 700H430L330 577H281Z" />
<glyph unicode="&#xfe;" horiz-adv-x="646" d="M81 -203V730H128V393H131Q150 431 182 460T254 505T340 522Q406 522 463 491T556 400T591 255Q591 189 570 139T514 55T433 4T339 -13Q276 -13 219 18T129 111H128V-203H81ZM334 29Q388 29 435 55T513 131T543 255Q543
325 514 375T437 453T336 480Q283 480 236 454T159 378T129 253Q129 180 158 130T234 55T334 29Z" />
<glyph unicode="&#xff;" horiz-adv-x="618" d="M399 613Q384 613 374 623T364 648Q364 662 374 672T399 683Q413 683 423 673T434 648Q434 634 424 624T399 613ZM234 613Q219 613 209 623T199 648Q199 662 209 672T234 683Q248 683 258 673T269 648Q269 634 259
624T234 613ZM285 -203V-11Q231 -7 185 20T110 96T81 212V510H129V215Q129 155 155 113T222 50T308 29Q355 29 396 50T464 113T491 215V510H537V212Q537 144 509 96T434 21T333 -11V-203H285Z" />
<glyph unicode="&#x2013;" horiz-adv-x="500" d="M0 244V288H500V244H0Z" />
<glyph unicode="&#x2014;" horiz-adv-x="1000" d="M0 244V288H1000V244H0Z" />
<glyph unicode="&#x2018;" horiz-adv-x="163" d="M75 443Q59 443 48 454T36 483Q36 494 38 504T44 527L91 700H133L84 520Q98 517 106 506T115 482Q115 466 104 455T75 443Z" />
<glyph unicode="&#x2019;" horiz-adv-x="163" d="M30 451L79 631Q65 634 57 645T48 669Q48 686 60 697T88 708Q105 708 116 697T127 668Q127 657 125 647T119 624L72 451H30Z" />
<glyph unicode="&#x201a;" horiz-adv-x="151" d="M29 -143L67 -7Q53 -4 45 7T36 32Q36 48 48 59T75 71Q93 71 104 60T115 31Q115 20 113 10T107 -14L71 -143H29Z" />
<glyph unicode="&#x201c;" horiz-adv-x="313" d="M75 443Q59 443 48 454T36 483Q36 494 38 504T44 527L91 700H133L84 520Q98 517 106 506T115 482Q115 466 104 455T75 443ZM236 443Q220 443 209 454T197 483Q197 494 199 504T205 527L252 700H294L245 520Q259
517 267 506T276 482Q276 466 265 455T236 443Z" />
<glyph unicode="&#x201d;" horiz-adv-x="321" d="M30 451L79 631Q65 634 57 645T48 669Q48 686 60 697T88 708Q105 708 116 697T127 668Q127 657 125 647T119 624L72 451H30ZM188 451L237 631Q223 634 215 645T206 669Q206 686 218 697T246 708Q263 708 274 697T285
668Q285 657 283 647T277 624L230 451H188Z" />
<glyph unicode="&#x201e;" horiz-adv-x="328" d="M29 -143L67 -7Q53 -4 45 7T36 32Q36 48 48 59T75 71Q93 71 104 60T115 31Q115 20 113 10T107 -14L71 -143H29ZM198 -143L236 -7Q222 -4 214 7T205 32Q205 48 217 59T244 71Q262 71 273 60T284 31Q284 20 282 10T276
-14L240 -143H198Z" />
<glyph unicode="&#x2022;" horiz-adv-x="294" d="M148 285Q126 285 110 300T94 338Q94 360 110 376T148 392Q170 392 185 376T201 338Q201 316 186 301T148 285Z" />
<glyph unicode="&#x2039;" horiz-adv-x="286" d="M194 119L42 314L194 510H244L93 314L244 119H194Z" />
<glyph unicode="&#x203a;" horiz-adv-x="286" d="M42 119L193 314L42 510H92L244 314L92 119H42Z" />
</font>
</defs>
</svg>
