<?xml version="1.0" standalone="no"?>
<!DOCTYPE svg PUBLIC "-//W3C//DTD SVG 1.1//EN" "http://www.w3.org/Graphics/SVG/1.1/DTD/svg11.dtd">
<svg xmlns="http://www.w3.org/2000/svg">
<defs >
<font id="MuseoModerno" horiz-adv-x="599" ><font-face
    font-family="MuseoModerno Thin"
    units-per-em="1000"
    panose-1="0 0 0 0 0 0 0 0 0 0"
    ascent="1145"
    descent="-445"
    alphabetic="0" />
<glyph unicode=" " horiz-adv-x="265" />
<glyph unicode="!" horiz-adv-x="260" d="M84 221V700H176V221H84ZM130 -10Q103 -10 84 9T64 56Q64 83 83 102T130 122Q157 122 176 103T196 56Q196 38 188 23T164 -1T130 -10Z" />
<glyph unicode="&quot;" horiz-adv-x="435" d="M273 407V700H365V407H273ZM70 407V700H162V407H70Z" />
<glyph unicode="#" horiz-adv-x="720" d="M145 0L171 182H24V257H180L207 448H58V523H216L241 700H319L294 523H462L487 700H564L539 523H687L688 448H530L504 257H654V182H494L469 0H391L416 182H248L223 0H145ZM258 257H425L453 448H285L258 257Z" />
<glyph unicode="$" horiz-adv-x="626" d="M280 -119V45H349V-119H280ZM280 660V819H349V660H280ZM73 0V85H376Q411 85 436 101T475 144T489 199Q489 229 476 254T438 295T378 311H246Q187 311 142 335T72 403T46 502Q46 558 70 603T139 674T242 700H539V615H251Q218
615 193 600T155 560T142 507Q142 480 154 456T191 416T248 401H383Q446 401 491 376T560 308T584 210Q584 149 560 102T490 27T387 0H73Z" />
<glyph unicode="%" horiz-adv-x="910" d="M218 328Q174 328 136 348T74 403T51 484V556Q51 602 74 637T135 692T218 712Q264 712 302 693T363 638T386 556V484Q386 439 363 404T302 348T218 328ZM219 395Q243 395 264 407T299 440T313 492V549Q313 579 300 600T265
634T219 646Q194 646 173 634T138 601T124 549V492Q124 462 137 441T172 407T219 395ZM692 -12Q647 -12 609 8T547 63T524 144V216Q524 262 547 297T608 352T692 372Q737 372 775 352T836 297T859 216V144Q859 98 836 63T775 8T692 -12ZM692 55Q717 55 738 67T773
100T787 152V208Q787 238 774 260T739 294T692 306Q667 306 646 294T611 260T597 208V152Q597 122 610 101T645 67T692 55ZM175 0L657 700H733L251 0H175Z" />
<glyph unicode="&amp;" horiz-adv-x="830" d="M668 -216Q626 -216 591 -198T536 -148T516 -74Q516 -33 536 -3T588 47T657 72Q653 76 644 83T615 108L557 155Q527 101 487 64T397 7T285 -12Q209 -12 153 17T64 99T32 222Q32 268 51 312T106 392T196 452Q181 466
166 484T142 525T132 571Q132 609 152 641T206 693T285 713Q331 713 364 695T417 646T436 572Q436 529 410 495T336 438L526 283L531 292Q555 347 575 382T616 439T664 468T728 477H777V404H732Q707 404 691 397T660 372T631 322T594 241L590 231L640 191Q708 138
748 96T806 15T824 -63Q824 -106 805 -141T750 -196T668 -216ZM291 70Q335 70 370 84T436 129T493 208L255 403Q214 385 185 358T140 299T125 230Q125 186 146 150T204 92T291 70ZM669 -143Q700 -143 720 -122T741 -64Q741 -45 734 -25T709 13Q678 11 653 0T614
-30T599 -77Q599 -106 619 -124T669 -143ZM278 486Q299 496 316 509T343 538T353 573Q353 600 335 619T283 639Q262 639 247 630T223 605T215 573Q215 554 224 539T249 510T278 486Z" />
<glyph unicode="&apos;" horiz-adv-x="232" d="M70 407V700H162V407H70Z" />
<glyph unicode="(" horiz-adv-x="346" d="M241 -180Q177 -103 134 10T90 275Q90 426 133 540T241 730H346Q278 654 232 540T186 275Q186 124 232 11T346 -180H241Z" />
<glyph unicode=")" horiz-adv-x="346" d="M0 -180Q68 -103 114 10T160 275Q160 426 114 540T0 730H105Q169 654 212 540T256 275Q256 124 213 11T105 -180H0Z" />
<glyph unicode="*" horiz-adv-x="453" d="M193 328V457L81 393L48 450L160 514L48 579L81 636L193 572V701H260V572L372 636L405 579L293 514L405 450L372 393L260 457V328H193Z" />
<glyph unicode="+" horiz-adv-x="586" d="M249 124V307H64V389H249V573H336V389H522V307H336V124H249Z" />
<glyph unicode="," horiz-adv-x="208" d="M38 -150L83 -6Q61 1 50 19T38 57Q38 85 57 103T104 122Q134 122 152 102T170 54Q170 35 167 19T156 -19L116 -150H38Z" />
<glyph unicode="-" horiz-adv-x="363" d="M40 219V303H323V219H40Z" />
<glyph unicode="." horiz-adv-x="208" d="M104 -10Q77 -10 58 9T38 56Q38 83 57 102T104 122Q131 122 150 103T170 56Q170 38 162 23T138 -1T104 -10Z" />
<glyph unicode="/" horiz-adv-x="368" d="M-26 -100L281 730H369L62 -100H-26Z" />
<glyph unicode="0" horiz-adv-x="648" d="M325 -13Q252 -13 195 19T104 106T70 229V471Q70 539 103 594T194 680T325 712Q397 712 454 680T544 594T578 471V229Q578 161 545 106T454 19T325 -13ZM325 72Q368 72 403 92T460 145T482 220V480Q482 521 461 554T404
608T325 628Q282 628 246 608T188 555T166 480V220Q166 179 187 146T245 92T325 72Z" />
<glyph unicode="1" horiz-adv-x="458" d="M54 0V85H196V615H61V700H293V85H419V0H54Z" />
<glyph unicode="2" horiz-adv-x="552" d="M160 0Q123 0 96 15T55 56T41 112Q41 142 56 170T98 218L326 381Q359 405 376 436T393 499Q393 533 377 558T331 599T256 615H75V700H266Q337 700 386 673T462 600T489 499Q489 444 464 397T384 312L157 154Q147 148 142
139T136 119Q136 104 146 95T176 85H506V0H160Z" />
<glyph unicode="3" horiz-adv-x="555" d="M54 0V85H288Q323 85 348 101T388 143T402 199Q402 230 388 256T347 299T283 316H90V401H290Q325 401 350 416T388 455T402 508Q402 536 389 560T350 600T290 615H54V700H303Q360 700 404 674T473 604T498 509Q498 458
473 419T404 355Q435 341 456 316T487 261T498 199Q498 146 473 101T404 28T302 0H54Z" />
<glyph unicode="4" horiz-adv-x="643" d="M404 0V159H169Q134 159 107 175T63 219T47 278Q47 296 52 313T64 346L260 700H368L152 314Q147 305 145 298T143 283Q143 267 152 256T181 244H404V497H499V244H595V159H499V0H404Z" />
<glyph unicode="5" horiz-adv-x="556" d="M55 0V85H271Q313 85 344 104T393 156T410 224Q410 259 394 289T347 338T275 357H73V700H460V615H165V440H287Q352 440 401 410T477 331T505 223Q505 164 477 113T399 31T283 0H55Z" />
<glyph unicode="6" horiz-adv-x="621" d="M311 -13Q236 -13 178 16T86 98T52 221Q52 286 77 346T148 472L300 700H411L223 416Q246 434 273 442T330 451Q404 451 458 420T540 336T569 221Q569 151 536 99T444 17T311 -13ZM311 72Q358 72 395 90T452 142T473 222Q473
260 456 294T402 348T313 369Q266 369 229 351T169 299T147 221Q147 175 168 142T227 90T311 72Z" />
<glyph unicode="7" horiz-adv-x="523" d="M88 0L376 558Q385 576 385 590Q385 601 378 608T352 615H25V700H365Q401 700 427 686T467 648T482 595Q482 578 478 561T466 528L196 0H88Z" />
<glyph unicode="8" horiz-adv-x="643" d="M321 -12Q238 -12 179 17T89 94T57 199Q57 233 69 264T106 322T172 368Q123 394 99 433T75 515Q75 568 104 612T189 684T321 712Q399 712 454 685T538 613T567 515Q567 472 544 433T470 368Q511 349 536 323T574 265T586
199Q586 143 555 95T464 17T321 -12ZM321 72Q376 72 413 90T470 138T490 200Q490 254 446 290T321 326Q241 326 197 290T153 200Q153 167 172 138T229 91T321 72ZM321 408Q393 408 432 438T472 517Q472 547 455 571T404 611T321 627Q273 627 240 612T189 572T171
517Q171 468 210 438T321 408Z" />
<glyph unicode="9" horiz-adv-x="621" d="M206 0L398 289Q375 270 348 262T292 254Q217 254 163 284T81 367T52 480Q52 542 82 595T170 680T310 712Q385 712 443 683T535 602T569 479Q569 436 558 396T525 317T473 233L317 0H206ZM309 336Q356 336 393 354T452
405T473 479Q473 525 452 558T394 610T310 628Q256 628 220 607T166 553T147 481Q147 443 165 410T219 357T309 336Z" />
<glyph unicode=":" horiz-adv-x="208" d="M104 387Q77 387 58 406T38 453Q38 480 57 499T104 519Q131 519 150 500T170 453Q170 435 162 420T138 396T104 387ZM104 -10Q77 -10 58 9T38 56Q38 83 57 102T104 122Q131 122 150 103T170 56Q170 38 162 23T138 -1T104 -10Z" />
<glyph unicode=";" horiz-adv-x="208" d="M104 388Q77 388 58 407T38 454Q38 481 57 500T104 520Q131 520 150 501T170 454Q170 427 151 408T104 388ZM38 -150L83 -6Q61 1 50 19T38 57Q38 85 57 103T104 122Q134 122 152 102T170 54Q170 35 167 19T156 -19L116 -150H38Z" />
<glyph unicode="&lt;" horiz-adv-x="568" d="M518 106L50 305V396L518 595V509L145 350L518 193V106Z" />
<glyph unicode="=" horiz-adv-x="586" d="M64 422V504H521V422H64ZM64 194V276H522V194H64Z" />
<glyph unicode="&gt;" horiz-adv-x="568" d="M50 106V193L423 350L50 509V595L518 396V305L50 106Z" />
<glyph unicode="?" horiz-adv-x="409" d="M109 228V308Q164 308 202 330T260 387T280 464Q280 505 260 541T202 599T109 621H55V700H109Q190 700 249 668T340 581T373 464Q373 401 341 347T250 261T109 228ZM136 -10Q109 -10 90 9T70 56Q70 83 89 102T136 122Q163
122 182 103T202 56Q202 38 193 23T169 -1T136 -10Z" />
<glyph unicode="@" horiz-adv-x="1044" d="M541 -218Q434 -217 344 -181T189 -80T87 68T51 250Q51 347 87 432T188 581T338 681T522 718Q620 718 705 682T855 581T956 432T993 250Q993 189 975 140T918 63T821 34Q772 34 737 58T681 122Q654 82 613 58T521 34Q462
34 413 63T334 141T304 250Q304 310 333 359T412 437T521 467Q581 467 630 438T709 359T738 250V204Q738 178 749 158T779 127T820 116Q854 116 873 135T900 184T908 250Q908 329 878 398T795 521T673 604T522 634Q442 634 372 604T249 521T167 399T137 250Q137
171 166 102T249 -19T377 -102T541 -133H575V-218H541ZM521 116Q560 116 589 135T636 184T653 250Q653 285 636 315T590 365T521 384Q483 384 453 365T407 316T390 250Q390 215 406 185T453 135T521 116Z" />
<glyph unicode="A" horiz-adv-x="699" d="M2 0L240 633Q256 674 284 693T349 712Q386 712 414 694T458 634L697 0H592L531 169H165L103 0H2ZM195 254H502L377 601Q372 614 366 621T349 628Q339 628 333 621T323 601L195 254Z" />
<glyph unicode="B" horiz-adv-x="696" d="M76 0V700H456Q509 700 549 677T612 613T635 522Q635 487 621 455T580 398T518 362Q559 352 589 326T636 264T654 186Q654 134 630 92T564 25T462 0H76ZM172 85H440Q477 85 503 101T543 144T558 201Q558 232 543 257T501
299T437 316H172V85ZM172 397H423Q458 397 484 412T525 453T540 507Q540 536 526 560T487 600T429 615H172V397Z" />
<glyph unicode="C" horiz-adv-x="514" d="M388 0Q308 1 242 28T129 104T56 215T30 350Q30 422 55 485T128 596T242 671T388 700H478V615H391Q334 615 286 595T203 539T147 455T127 350Q127 294 147 246T202 162T286 106T391 85H478V0H388Z" />
<glyph unicode="D" horiz-adv-x="707" d="M76 0V700H300Q412 700 493 655T620 531T665 350Q665 248 620 169T494 45T300 0H76ZM172 85H301Q379 85 439 117T535 208T570 350Q570 433 535 492T440 583T301 615H172V85Z" />
<glyph unicode="E" horiz-adv-x="563" d="M245 0Q187 0 143 27T73 100T48 198Q48 246 70 288T136 354Q94 381 72 421T50 505Q50 559 75 603T145 673T242 700H519V615H253Q222 615 198 600T160 561T146 505Q146 476 160 452T200 414T255 399H482V314H262Q225 314
199 298T158 255T143 198Q143 168 157 142T197 101T258 85H519V0H245Z" />
<glyph unicode="F" horiz-adv-x="535" d="M69 0V518Q69 571 93 612T158 676T251 700H500V615H262Q218 615 192 588T165 518V376H463V291H165V0H69Z" />
<glyph unicode="G" horiz-adv-x="822" d="M593 -220Q543 -220 505 -201T444 -143T422 -52Q422 -39 423 -26T426 2Q344 -3 274 21T152 92T71 207T42 356Q42 430 67 494T139 608T252 684T400 712Q481 712 547 685T660 610T732 498T758 362V-41Q758 -95 738 -135T682
-198T593 -220ZM587 -134Q620 -134 641 -111T662 -43V195Q611 162 581 128T537 62T518 3T513 -42Q513 -71 523 -91T551 -123T587 -134ZM400 84Q416 84 430 85T460 91Q474 125 499 160T564 229T662 294V362Q662 419 643 467T588 551T504 607T400 628Q343 628 296
608T213 550T158 464T138 356Q138 298 157 249T212 162T295 105T400 84Z" />
<glyph unicode="H" horiz-adv-x="713" d="M76 0V700H172V399H541V700H637V0H541V314H172V0H76Z" />
<glyph unicode="I" horiz-adv-x="469" d="M52 0V85H187V615H52V700H417V615H283V85H417V0H52Z" />
<glyph unicode="J" horiz-adv-x="413" d="M176 -217Q127 -217 90 -199T31 -145T10 -57Q10 -10 29 46T98 163T242 284V615H91V700H337V-41Q337 -95 318 -134T262 -195T176 -217ZM169 -131Q190 -131 206 -122T232 -92T241 -43V185Q176 135 146 91T108 11T100 -47Q100
-89 121 -110T169 -131Z" />
<glyph unicode="K" horiz-adv-x="679" d="M76 0V700H172V385H354Q396 385 430 400T485 446T506 519L507 700H602V520Q602 451 567 401T474 324L565 116Q573 100 582 93T610 85H660V0H595Q551 0 523 19T478 74L378 302Q366 301 355 301T331 300H172V0H76Z" />
<glyph unicode="L" horiz-adv-x="472" d="M254 0Q197 0 156 24T92 91T69 187V700H165V175Q165 136 189 111T254 85H442V0H254Z" />
<glyph unicode="M" horiz-adv-x="1089" d="M545 -12Q491 -12 448 13T381 81T356 183V531Q356 558 343 580T308 615T260 628Q234 628 213 615T179 580T166 531V0H70V518Q70 573 94 617T161 686T260 712Q317 712 360 687T427 617T451 518V170Q451 142 464 121T498
86T545 73Q570 73 591 86T624 120T637 170V518Q637 573 661 617T729 686T829 712Q885 712 928 687T995 617T1019 518V0H923V531Q923 558 911 580T877 615T829 628Q802 628 781 615T746 580T733 531V183Q733 125 709 82T642 13T545 -12Z" />
<glyph unicode="N" horiz-adv-x="803" d="M545 -12Q489 -12 447 13T380 83T356 182V531Q356 558 343 580T308 615T260 628Q234 628 213 615T179 580T166 531V0H70V518Q70 573 94 617T161 686T260 712Q317 712 360 687T427 617T451 518V169Q451 142 464 120T498
85T545 72Q570 72 591 85T624 120T637 169V700H733V182Q733 127 709 83T643 14T545 -12Z" />
<glyph unicode="O" horiz-adv-x="812" d="M406 -13Q323 -13 256 15T142 94T68 210T42 351Q42 425 68 491T141 607T256 685T406 713Q489 713 556 685T670 607T744 491T770 350Q770 276 744 210T671 94T556 16T406 -13ZM406 72Q463 72 512 93T597 152T654 240T674
351Q674 410 654 461T598 549T513 607T406 628Q348 628 299 608T214 550T158 461T138 350Q138 291 158 241T214 152T299 93T406 72Z" />
<glyph unicode="P" horiz-adv-x="648" d="M76 0V700H371Q437 700 491 671T577 588T609 464Q609 396 578 343T492 259T369 229H172V0H76ZM172 314H358Q401 314 436 331T492 383T513 464Q513 512 492 545T436 597T359 615H172V314Z" />
<glyph unicode="Q" horiz-adv-x="812" d="M358 -203V6H454V-203H358ZM406 -13Q323 -13 256 15T142 94T68 210T42 351Q42 425 68 491T141 607T256 685T406 713Q489 713 556 685T670 607T744 491T770 350Q770 276 744 210T671 94T556 16T406 -13ZM406 72Q463 72
512 93T597 152T654 240T674 351Q674 410 654 461T598 549T513 607T406 628Q348 628 299 608T214 550T158 461T138 350Q138 291 158 241T214 152T299 93T406 72Z" />
<glyph unicode="R" horiz-adv-x="678" d="M76 0V700H383Q449 700 503 672T589 592T621 471Q621 401 586 348T490 268L565 116Q573 100 582 93T610 85H660V0H595Q556 0 527 20T478 74L394 245Q384 244 373 244T349 243H172V0H76ZM172 328H370Q413 328 448 345T504
394T525 471Q525 517 504 549T448 598T371 615H172V328Z" />
<glyph unicode="S" horiz-adv-x="627" d="M73 0V85H376Q411 85 436 101T475 144T489 199Q489 229 476 254T438 295T378 311H246Q187 311 142 335T72 403T46 502Q46 558 70 603T139 674T242 700H539V615H251Q218 615 193 600T155 560T142 507Q142 480 154 456T191
416T248 401H383Q446 401 491 376T560 308T584 210Q584 149 560 102T490 27T387 0H73Z" />
<glyph unicode="T" horiz-adv-x="568" d="M421 0Q364 0 323 24T259 91T236 187V615H23V700H545V615H332V175Q332 136 356 111T422 85H468V0H421Z" />
<glyph unicode="U" horiz-adv-x="701" d="M351 -12Q270 -12 207 22T109 120T73 271V700H169V261Q169 210 191 167T254 99T351 73Q407 73 448 98T510 167T532 261V700H628V271Q628 184 593 120T495 22T351 -12Z" />
<glyph unicode="V" horiz-adv-x="675" d="M337 -12Q301 -12 274 6T231 67L2 700H107L310 106Q315 93 321 85T337 77Q348 77 354 85T365 106L572 700H673L444 67Q429 26 402 7T337 -12Z" />
<glyph unicode="W" horiz-adv-x="1111" d="M337 -12Q259 -12 199 20T104 113T70 257V700H166V251Q166 202 186 162T245 97T337 72Q389 72 427 96T487 161T508 251V700H604V251Q604 202 624 162T683 97T775 72Q827 72 865 96T924 161T945 251V700H1041V257Q1041
174 1007 114T913 21T775 -12Q728 -12 686 1T610 43T556 114Q536 72 502 44T426 2T337 -12Z" />
<glyph unicode="X" horiz-adv-x="683" d="M59 0L270 323Q216 336 174 368T106 450T81 567V700H176V556Q176 517 195 482T249 424T328 398L523 700H631L428 392Q494 382 540 349T610 266T634 152V0H538V159Q538 225 494 268T370 313L167 0H59Z" />
<glyph unicode="Y" horiz-adv-x="701" d="M302 0V203Q229 213 178 250T100 348T73 483V700H169V475Q169 423 190 380T252 310T351 283Q409 283 449 309T511 379T532 475V700H628V483Q628 408 601 348T523 250T398 203V0H302Z" />
<glyph unicode="Z" horiz-adv-x="609" d="M188 0Q123 0 85 39T47 137Q47 174 62 200T111 254L428 516Q445 529 452 540T459 567Q459 579 452 590T435 608T411 615H69V700H420Q463 700 494 682T542 634T559 565Q559 528 544 500T496 445L179 184Q167 175 160 168T150
154T147 134Q147 122 153 111T171 92T198 85H559V0H188Z" />
<glyph unicode="[" horiz-adv-x="333" d="M76 -180V730H315V645H166V-95H315V-180H76Z" />
<glyph unicode="\" horiz-adv-x="336" d="M279 -100L-19 730H69L367 -100H279Z" />
<glyph unicode="]" horiz-adv-x="333" d="M18 -180V-95H167V645H18V730H257V-180H18Z" />
<glyph unicode="^" horiz-adv-x="570" d="M67 376L242 730H328L502 376H418L284 649L149 376H67Z" />
<glyph unicode="_" horiz-adv-x="500" d="M0 -99V-32H500V-99H0Z" />
<glyph unicode="`" horiz-adv-x="205" d="M89 757L-3 880H86L178 757H89Z" />
<glyph unicode="a" horiz-adv-x="646" d="M285 -12Q211 -12 157 23T74 120T45 255Q45 330 77 390T169 486T313 522Q394 522 452 487T541 392T573 258V0H480V104H478Q463 75 438 49T374 5T285 -12ZM309 67Q359 67 397 91T457 159T479 257Q479 310 459 352T400 418T311
443Q257 443 219 418T160 351T139 254Q139 202 159 160T217 92T309 67Z" />
<glyph unicode="b" horiz-adv-x="639" d="M331 -12Q257 -12 198 20T105 112T70 258V730H162V419H164Q181 450 208 473T271 509T346 522Q417 522 473 490T561 400T594 261Q594 198 575 148T520 61T437 7T331 -12ZM331 67Q378 67 416 90T478 155T501 255Q501 311
479 353T418 419T332 443Q285 443 247 420T186 355T163 254Q163 197 185 155T246 90T331 67Z" />
<glyph unicode="c" horiz-adv-x="412" d="M320 0Q241 0 179 34T81 125T45 255Q45 327 81 384T179 476T320 510H380V431H317Q266 431 226 408T162 344T138 255Q138 206 161 166T225 103T317 79H380V0H320Z" />
<glyph unicode="d" horiz-adv-x="639" d="M308 -12Q250 -12 202 6T119 61T65 147T45 261Q45 341 77 399T166 490T293 522Q332 522 367 509T431 473T475 419H477V730H569V258Q569 173 535 113T442 20T308 -12ZM308 67Q355 67 393 90T453 155T476 254Q476 312 454
354T393 420T307 443Q260 443 222 419T161 353T138 255Q138 197 161 155T222 90T308 67Z" />
<glyph unicode="e" horiz-adv-x="570" d="M332 0Q248 0 183 31T82 120T45 255Q45 331 76 391T162 487T290 522Q369 522 421 488T500 397T526 268Q526 257 526 245T523 224H143Q148 177 174 145T240 96T330 79H463V0H332ZM142 289H433Q433 308 429 329T415 371T389
408T348 435T290 445Q255 445 229 432T183 396T154 345T142 289Z" />
<glyph unicode="f" horiz-adv-x="394" d="M103 0V431H14V510H103V585Q103 653 141 691T248 730H374V651H266Q232 651 214 632T196 579V510H354V431H196V0H103Z" />
<glyph unicode="g" horiz-adv-x="640" d="M150 -203V-124H400Q437 -124 457 -102T478 -44V96H476Q457 67 430 44T368 8T289 -6Q217 -6 162 27T76 120T45 257Q45 332 76 392T165 487T307 522Q387 522 446 488T537 394T570 252V-50Q570 -120 529 -161T417 -203H150ZM306
73Q357 73 395 97T455 162T477 256Q477 309 456 351T397 417T306 442Q254 442 217 418T159 351T138 255Q138 205 158 164T216 98T306 73Z" />
<glyph unicode="h" horiz-adv-x="630" d="M73 0V730H165V444Q196 484 240 503T333 522Q401 522 451 494T529 414T557 295V0H465V294Q465 340 444 373T389 425T315 443Q276 443 242 426T187 375T165 296V0H73Z" />
<glyph unicode="i" horiz-adv-x="238" d="M73 0V510H166V0H73ZM120 847Q95 847 77 865T58 909Q58 934 76 952T120 971Q145 971 163 953T182 909Q182 884 164 866T120 847Z" />
<glyph unicode="j" horiz-adv-x="238" d="M-77 -165V-86H4Q38 -86 56 -67T74 -14V510H166V-20Q166 -87 127 -126T20 -165H-77ZM119 848Q94 848 76 866T57 910Q57 935 75 953T119 972Q144 972 162 954T181 910Q181 885 163 867T119 848Z" />
<glyph unicode="k" horiz-adv-x="607" d="M73 0V730H165V296H305L439 510H541L396 282Q468 261 508 204T549 70V0H456V70Q456 112 438 145T386 197T310 217H165V0H73Z" />
<glyph unicode="l" horiz-adv-x="238" d="M73 0V730H165V0H73Z" />
<glyph unicode="m" horiz-adv-x="971" d="M73 0V307Q73 366 100 415T178 493T301 522Q336 522 371 513T436 481T484 420H485Q505 458 535 480T600 512T671 522Q742 522 793 493T871 415T898 307V0H806V307Q806 345 788 376T740 425T670 443Q632 443 600 425T550
376T531 307V0H439V307Q439 345 421 375T371 424T300 443Q262 443 232 425T183 376T165 307V0H73Z" />
<glyph unicode="n" horiz-adv-x="622" d="M73 0V295Q73 363 103 414T188 493T311 522Q381 522 434 494T518 414T549 295V0H457V294Q457 340 437 373T383 425T311 443Q273 443 240 425T186 374T165 294V0H73Z" />
<glyph unicode="o" horiz-adv-x="626" d="M313 -12Q235 -12 175 23T80 119T45 255Q45 330 80 390T175 486T313 522Q391 522 451 487T546 391T581 255Q581 180 547 120T452 24T313 -12ZM313 67Q366 67 405 92T466 159T488 255Q488 308 466 350T405 418T313 443Q261
443 222 418T160 351T138 255Q138 202 160 160T221 92T313 67Z" />
<glyph unicode="p" horiz-adv-x="639" d="M331 522Q389 522 437 504T520 449T574 363T594 249Q594 170 562 111T473 20T346 -12Q307 -12 272 1T209 37T164 91H162V-220H70V252Q70 338 104 398T198 490T331 522ZM331 443Q285 443 247 420T186 355T163 256Q163 198
185 156T246 90T332 67Q380 67 418 91T478 157T501 255Q501 313 478 355T417 420T331 443Z" />
<glyph unicode="q" horiz-adv-x="626" d="M268 -203V5H359V-203H268ZM313 -12Q235 -12 175 23T80 119T45 255Q45 330 80 390T175 486T313 522Q391 522 451 487T546 391T581 255Q581 180 547 120T452 24T313 -12ZM313 67Q366 67 405 92T466 159T488 255Q488 308
466 350T405 418T313 443Q261 443 222 418T160 351T138 255Q138 202 160 160T221 92T313 67Z" />
<glyph unicode="r" horiz-adv-x="332" d="M70 0V365Q70 433 108 471T215 510H320V431H232Q199 431 181 412T162 359V0H70Z" />
<glyph unicode="s" horiz-adv-x="527" d="M66 0V79H310Q334 79 351 89T378 117T387 153Q387 171 379 186T355 211T315 221H212Q163 221 127 237T70 286T49 364Q49 403 68 436T121 489T199 510H434V431H208Q177 431 159 412T141 367Q141 342 159 324T212 305H310Q365
305 402 288T459 237T479 156Q479 115 459 80T404 22T321 0H66Z" />
<glyph unicode="t" horiz-adv-x="407" d="M247 0Q179 0 141 39T102 145V638H194V151Q194 118 212 99T264 79H367V0H247ZM14 431V510H369V431H14Z" />
<glyph unicode="u" horiz-adv-x="624" d="M312 -12Q243 -12 189 16T104 96T73 215V510H166V216Q166 170 186 137T239 85T311 67Q350 67 383 85T437 136T458 216V510H551V215Q551 147 520 96T435 17T312 -12Z" />
<glyph unicode="v" horiz-adv-x="577" d="M288 -12Q254 -12 227 7T186 63L20 510H121L269 97Q273 87 278 83T289 79Q296 79 300 83T309 97L458 510H557L391 63Q377 27 350 8T288 -12Z" />
<glyph unicode="w" horiz-adv-x="980" d="M244 -12Q196 -12 158 6T96 64T73 166V510H165V150Q165 123 176 104T205 76T243 67Q263 67 281 76T310 104T322 150V348Q322 407 344 445T404 503T490 522Q538 522 576 503T636 446T658 348V150Q658 123 669 105T698 77T737
67Q758 67 775 76T803 104T814 150V510H907V166Q907 104 884 65T823 7T737 -12Q691 -12 652 6T590 64T566 166V362Q566 390 555 408T527 434T490 443Q470 443 453 435T425 408T414 362V166Q414 104 391 65T329 7T244 -12Z" />
<glyph unicode="x" horiz-adv-x="600" d="M43 0L218 235Q171 251 136 281T80 353T59 442V510H152V442Q152 405 171 374T222 324T291 300L445 510H547L381 285Q433 270 470 239T529 164T550 69V0H458V69Q458 109 438 141T384 194T306 219L146 0H43Z" />
<glyph unicode="y" horiz-adv-x="623" d="M266 -203V-8Q210 0 167 29T98 106T73 215V510H166V216Q166 170 186 137T239 85T311 67Q350 67 383 85T437 136T458 216V510H550V215Q550 154 526 107T458 31T358 -8V-203H266Z" />
<glyph unicode="z" horiz-adv-x="511" d="M148 0Q116 0 91 15T52 55T37 111Q37 143 52 167T98 212L333 361Q348 370 352 379T357 398Q357 410 347 420T321 431H62V510H349Q380 510 404 495T443 455T458 399Q458 368 443 343T398 298L163 149Q148 140 144 131T139
112Q139 100 149 90T176 79H449V0H148Z" />
<glyph unicode="{" horiz-adv-x="368" d="M251 -180Q191 -180 157 -144T123 -47V182Q123 196 116 209T97 231T69 239H30V324H69Q92 324 107 341T123 382V601Q123 661 157 695T251 730H350V645H264Q242 645 228 631T214 593V386Q214 368 208 348T188 310T154 281Q175
271 188 254T207 216T214 177V-41Q214 -65 228 -80T264 -95H350V-180H251Z" />
<glyph unicode="|" horiz-adv-x="242" d="M76 -180V730H166V-180H76Z" />
<glyph unicode="}" horiz-adv-x="368" d="M18 -180V-95H104Q127 -95 140 -80T154 -41V177Q154 196 160 216T180 253T214 281Q194 293 181 310T161 347T154 386V593Q154 617 141 631T104 645H18V730H117Q177 730 211 696T245 601V382Q245 359 260 342T299 324H338V239H299Q284
239 272 231T252 209T245 182V-47Q245 -109 211 -144T117 -180H18Z" />
<glyph unicode="~" horiz-adv-x="576" d="M380 279Q349 279 323 288T274 311T228 334T182 344Q156 344 132 332T79 293L35 348Q73 386 108 405T181 425Q211 425 237 415T285 392T331 369T380 359Q403 359 422 367T461 390T498 422L543 367Q496 322 458 301T380 279Z" />
<glyph unicode="&#xa0;" horiz-adv-x="265" />
<glyph unicode="&#xa1;" horiz-adv-x="260" d="M84 -191V284H176V-191H84ZM130 520Q149 520 164 511T187 487T196 454Q196 427 177 408T130 388Q103 388 84 407T64 454Q64 481 83 500T130 520Z" />
<glyph unicode="&#xa2;" horiz-adv-x="409" d="M228 -119V25L296 15V-119H228ZM228 484V629H296V495L228 484ZM320 0Q241 0 179 34T81 125T45 255Q45 327 81 384T179 476T320 510H380V431H317Q266 431 226 408T162 344T138 255Q138 206 161 166T225 103T317 79H380V0H320Z"
/>
<glyph unicode="&#xa3;" horiz-adv-x="598" d="M70 0V85H174V501Q174 558 198 602T266 673T367 700H517V615H367Q325 615 298 586T270 511V85H553V0H70ZM70 326V410H447V326H70Z" />
<glyph unicode="&#xa4;" horiz-adv-x="682" d="M112 26L51 88L132 169Q109 200 96 238T82 319Q82 361 95 398T130 466L53 543L114 604L190 526Q222 550 260 562T338 575Q382 575 420 562T489 525L570 605L631 544L550 463Q596 399 596 319Q596 278 584 241T547
171L631 88L570 26L486 111Q455 88 418 76T338 63Q259 63 194 109L112 26ZM338 146Q386 146 426 169T489 231T513 319Q513 367 490 406T426 469T338 493Q290 493 251 470T189 407T165 319Q165 274 187 235T248 171T338 146Z" />
<glyph unicode="&#xa5;" horiz-adv-x="740" d="M322 0V130H45V197H322V262Q295 265 272 272T229 290H45V358H152Q122 394 108 441T93 542V700H189V534Q189 482 210 439T272 369T371 342Q429 342 469 368T530 438T552 534V700H648V542Q648 489 633 442T589 358H696V290H512Q492
279 469 272T418 262V197H696V130H418V0H322Z" />
<glyph unicode="&#xa6;" horiz-adv-x="242" d="M76 331V730H166V331H76ZM76 -180V219H166V-180H76Z" />
<glyph unicode="&#xa7;" horiz-adv-x="632" d="M146 -157V-78H349Q380 -78 401 -65T433 -30T444 16Q444 39 434 59T404 94T355 108H214Q161 108 125 131T70 193T51 276Q51 306 61 333T92 383T144 418Q118 438 106 467T93 528Q93 574 112 613T171 676T269 700H481V621H277Q247
621 226 608T194 574T183 526Q183 504 193 484T221 451T265 438H418Q470 438 506 415T562 353T581 271Q581 240 570 211T536 160T481 126Q508 106 521 77T534 14Q534 -31 515 -70T456 -133T358 -157H146ZM226 188H407Q433 188 451 200T480 231T490 273Q490 296
480 315T451 346T405 358H224Q198 358 180 346T152 315T142 273Q142 251 152 232T181 200T226 188Z" />
<glyph unicode="&#xa8;" horiz-adv-x="356" d="M272 784Q250 784 235 800T219 837Q219 859 234 874T272 890Q293 890 309 875T325 837Q325 816 309 800T272 784ZM83 784Q61 784 46 800T30 837Q30 859 45 874T83 890Q104 890 120 875T136 837Q136 816 120 800T83 784Z" />
<glyph unicode="&#xa9;" horiz-adv-x="842" d="M421 -23Q344 -23 277 5T159 85T80 203T51 347Q51 424 79 491T159 609T277 688T421 717Q498 717 565 689T682 609T762 491T791 347Q791 270 762 203T683 85T565 6T421 -23ZM421 28Q488 28 545 52T646 121T715 223T740
347Q740 414 715 472T647 573T546 641T421 666Q355 666 297 642T195 574T127 472T102 348Q102 281 126 223T195 121T297 53T421 28ZM448 156Q389 157 345 182T277 250T253 346Q253 398 277 440T345 508T448 534H504V472H446Q411 472 382 456T336 411T318 345Q318
309 335 281T382 236T446 219H504V156H448Z" />
<glyph unicode="&#xaa;" horiz-adv-x="423" d="M200 388Q154 388 121 409T69 468T51 551Q51 596 70 632T125 690T212 712Q264 712 299 691T352 634T372 552V394H308V458H307Q289 424 264 406T200 388ZM212 444Q253 444 279 473T306 551Q306 595 282 626T212 657Q167
657 142 626T116 551Q116 506 141 475T212 444Z" />
<glyph unicode="&#xab;" horiz-adv-x="531" d="M390 119L243 314L390 510H480L335 314L480 119H390ZM189 119L42 314L189 510H279L134 314L279 119H189Z" />
<glyph unicode="&#xac;" horiz-adv-x="559" d="M434 129V246H40V326H519V129H434Z" />
<glyph unicode="&#xad;" horiz-adv-x="363" d="M40 219V303H323V219H40Z" />
<glyph unicode="&#xae;" horiz-adv-x="842" d="M421 -23Q344 -23 277 5T159 85T80 203T51 347Q51 424 79 491T159 609T277 688T421 717Q498 717 565 689T682 609T762 491T791 347Q791 270 762 203T683 85T565 6T421 -23ZM421 28Q488 28 545 52T646 121T715 223T740
347Q740 414 715 472T647 573T546 641T421 666Q355 666 297 642T195 574T127 472T102 348Q102 281 126 223T195 121T297 53T421 28ZM282 155V534H447Q484 534 513 518T560 474T578 409Q578 373 559 342T503 297L547 220Q550 214 555 211T568 208H597V155H558Q538
155 521 165T493 192L444 281H345V155H282ZM345 338H441Q470 338 492 356T514 411Q514 440 493 458T441 477H345V338Z" />
<glyph unicode="&#xaf;" horiz-adv-x="310" d="M9 591V653H301V591H9Z" />
<glyph unicode="&#xb0;" horiz-adv-x="417" d="M209 391Q165 391 128 413T70 471T48 552Q48 596 69 632T128 690T208 712Q253 712 289 691T347 633T369 552Q369 508 348 472T290 413T209 391ZM209 457Q235 457 256 469T289 503T302 552Q302 578 289 599T255 633T208
646Q183 646 162 634T128 600T115 552Q115 525 127 504T161 470T209 457Z" />
<glyph unicode="&#xb1;" horiz-adv-x="558" d="M235 216V388H50V468H235V640H322V468H508V388H322V216H235ZM50 18V100H508V18H50Z" />
<glyph unicode="&#xb2;" horiz-adv-x="434" d="M143 263Q115 263 95 274T63 302T52 341Q52 363 63 382T94 415L262 518Q280 528 288 544T297 577Q297 603 279 621T229 640H77V700H234Q274 700 303 683T350 638T367 577Q367 543 353 516T310 472L139 370Q124 361
124 347Q124 338 132 331T154 323H378V263H143Z" />
<glyph unicode="&#xb3;" horiz-adv-x="425" d="M54 263V323H230Q260 323 278 341T296 387Q296 415 278 435T228 455H78V516H232Q257 516 275 534T294 578Q294 606 276 623T233 640H54V700H240Q276 700 305 684T350 640T367 578Q367 551 354 526T312 484Q340 469
354 443T369 387Q369 354 353 326T307 280T239 263H54Z" />
<glyph unicode="&#xb4;" horiz-adv-x="205" d="M20 757L112 880H201L109 757H20Z" />
<glyph unicode="&#xb5;" horiz-adv-x="624" d="M73 -203V510H166V216Q166 170 186 137T239 85T311 67Q350 67 383 85T437 136T458 216V510H551V215Q551 147 521 96T438 17T318 -12Q288 -12 259 -5T206 18T166 58V-203H73Z" />
<glyph unicode="&#xb6;" horiz-adv-x="657" d="M290 -203V232Q211 235 158 271T78 361T51 473Q51 533 79 584T163 668T305 700H606V634H536V-203H468V634H358V-203H290Z" />
<glyph unicode="&#xb7;" horiz-adv-x="266" d="M133 248Q107 248 87 267T67 314Q67 341 87 360T133 380Q161 380 180 361T200 314Q200 287 181 268T133 248Z" />
<glyph unicode="&#xb8;" horiz-adv-x="204" d="M-1 -203L93 20H183L88 -203H-1Z" />
<glyph unicode="&#xb9;" horiz-adv-x="375" d="M56 263V323H158V640H64V700H229V323H321V263H56Z" />
<glyph unicode="&#xba;" horiz-adv-x="429" d="M214 388Q167 388 130 409T73 466T52 546Q52 590 72 626T130 684T214 706H413V653H332Q356 633 366 606T377 546Q377 501 356 465T299 409T214 388ZM214 443Q258 443 285 472T312 546Q312 590 286 620T214 651Q168
651 142 621T116 546Q116 503 142 473T214 443Z" />
<glyph unicode="&#xbb;" horiz-adv-x="525" d="M253 119L397 314L253 510H343L490 314L343 119H253ZM36 119L180 314L36 510H126L273 314L126 119H36Z" />
<glyph unicode="&#xbc;" horiz-adv-x="1010" d="M813 0V98H662Q626 98 601 121T575 178Q575 190 578 202T588 225L711 437H790L652 203Q646 193 646 184Q646 174 653 167T674 159H813V309H883V159H954V98H883V0H813ZM56 263V323H158V640H64V700H229V323H321V263H56ZM214
0L682 700H758L291 0H214Z" />
<glyph unicode="&#xbd;" horiz-adv-x="1041" d="M56 263V323H158V640H64V700H229V323H321V263H56ZM220 0L688 700H764L297 0H220ZM745 16Q717 16 697 27T665 55T654 94Q654 116 665 135T696 168L864 271Q882 281 890 297T899 330Q899 356 881 374T831 393H679V453H836Q876
453 905 436T952 391T969 330Q969 296 955 269T912 225L741 123Q726 114 726 100Q726 91 734 84T756 76H980V16H745Z" />
<glyph unicode="&#xbe;" horiz-adv-x="1050" d="M853 0V98H703Q666 98 641 121T615 177Q615 190 618 202T628 225L751 437H830L692 203Q686 194 686 184Q686 174 693 167T714 159H853V309H923V159H994V98H923V0H853ZM54 263V323H230Q260 323 278 341T296 387Q296
415 278 435T228 455H78V516H232Q257 516 275 534T294 578Q294 606 276 623T233 640H54V700H240Q276 700 305 684T350 640T367 578Q367 551 354 526T312 484Q340 469 354 443T369 387Q369 354 353 326T307 280T239 263H54ZM246 0L714 700H790L322 0H246Z" />
<glyph unicode="&#xbf;" horiz-adv-x="391" d="M292 -190Q211 -190 152 -158T61 -71T28 46Q28 110 60 163T151 249T292 282V202Q237 202 199 180T141 123T121 46Q121 5 141 -31T199 -89T292 -111H346V-190H292ZM265 520Q292 520 311 501T331 454Q331 427 312 408T265
388Q238 388 219 407T199 454Q199 472 208 487T232 511T265 520Z" />
<glyph unicode="&#xc0;" horiz-adv-x="699" d="M2 0L240 633Q256 674 284 693T349 712Q386 712 414 694T458 634L697 0H592L531 169H165L103 0H2ZM195 254H502L377 601Q372 614 366 621T349 628Q339 628 333 621T323 601L195 254ZM303 757L211 880H300L392 757H303Z" />
<glyph unicode="&#xc1;" horiz-adv-x="699" d="M2 0L240 633Q256 674 284 693T349 712Q386 712 414 694T458 634L697 0H592L531 169H165L103 0H2ZM195 254H502L377 601Q372 614 366 621T349 628Q339 628 333 621T323 601L195 254ZM308 757L400 880H489L397 757H308Z" />
<glyph unicode="&#xc2;" horiz-adv-x="699" d="M2 0L240 633Q256 674 284 693T349 712Q386 712 414 694T458 634L697 0H592L531 169H165L103 0H2ZM195 254H502L377 601Q372 614 366 621T349 628Q339 628 333 621T323 601L195 254ZM206 757L298 880H402L494 757H416L350
842L284 757H206Z" />
<glyph unicode="&#xc3;" horiz-adv-x="699" d="M2 0L240 633Q256 674 284 693T349 712Q386 712 414 694T458 634L697 0H592L531 169H165L103 0H2ZM195 254H502L377 601Q372 614 366 621T349 628Q339 628 333 621T323 601L195 254ZM417 747Q390 747 373 755T345
774T324 797Q314 809 304 817T279 826Q266 826 256 815T245 782V757H185V781Q185 829 213 858T282 887Q317 887 337 872T372 841Q382 828 393 818T420 807Q434 807 444 818T454 852V877H514V853Q514 804 486 776T417 747Z" />
<glyph unicode="&#xc4;" horiz-adv-x="699" d="M446 756Q424 756 409 772T393 809Q393 831 408 846T446 862Q467 862 483 847T499 809Q499 788 483 772T446 756ZM257 756Q235 756 220 772T204 809Q204 831 219 846T257 862Q278 862 294 847T310 809Q310 788 294
772T257 756ZM2 0L240 633Q256 674 284 693T349 712Q386 712 414 694T458 634L697 0H592L531 169H165L103 0H2ZM195 254H502L377 601Q372 614 366 621T349 628Q339 628 333 621T323 601L195 254Z" />
<glyph unicode="&#xc5;" horiz-adv-x="699" d="M2 0L240 633Q256 674 284 693T349 712Q386 712 414 694T458 634L697 0H592L531 169H165L103 0H2ZM195 254H502L377 601Q372 614 366 621T349 628Q339 628 333 621T323 601L195 254ZM349 747Q309 747 282 774T254
842Q254 882 281 909T349 937Q389 937 416 910T444 842Q444 802 417 775T349 747ZM349 789Q371 789 386 804T401 842Q401 865 386 880T349 895Q327 895 312 880T297 842Q297 820 312 805T349 789Z" />
<glyph unicode="&#xc6;" horiz-adv-x="963" d="M2 0L240 633Q256 674 284 693T349 712Q380 712 403 698T447 650L464 609Q472 636 492 656T542 688T610 700H933V615H618Q575 615 549 593T515 539T519 472L547 399H896V314H578L643 145Q654 117 674 101T726 85H933V0H701Q648
0 612 26T561 91L531 169H165L103 0H2ZM195 254H502L377 601Q372 614 366 621T349 628Q339 628 333 621T323 601L195 254Z" />
<glyph unicode="&#xc7;" horiz-adv-x="538" d="M388 0Q308 1 242 28T129 104T56 215T30 350Q30 422 55 485T128 596T242 671T388 700H478V615H391Q334 615 286 595T203 539T147 455T127 350Q127 294 147 246T202 162T286 106T391 85H478V0H388ZM224 -203L318 20H408L313
-203H224Z" />
<glyph unicode="&#xc8;" horiz-adv-x="563" d="M245 0Q187 0 143 27T73 100T48 198Q48 246 70 288T136 354Q94 381 72 421T50 505Q50 559 75 603T145 673T242 700H519V615H253Q222 615 198 600T160 561T146 505Q146 476 160 452T200 414T255 399H482V314H262Q225
314 199 298T158 255T143 198Q143 168 157 142T197 101T258 85H519V0H245ZM289 757L197 880H286L378 757H289Z" />
<glyph unicode="&#xc9;" horiz-adv-x="563" d="M245 0Q187 0 143 27T73 100T48 198Q48 246 70 288T136 354Q94 381 72 421T50 505Q50 559 75 603T145 673T242 700H519V615H253Q222 615 198 600T160 561T146 505Q146 476 160 452T200 414T255 399H482V314H262Q225
314 199 298T158 255T143 198Q143 168 157 142T197 101T258 85H519V0H245ZM263 757L355 880H444L352 757H263Z" />
<glyph unicode="&#xca;" horiz-adv-x="563" d="M245 0Q187 0 143 27T73 100T48 198Q48 246 70 288T136 354Q94 381 72 421T50 505Q50 559 75 603T145 673T242 700H519V615H253Q222 615 198 600T160 561T146 505Q146 476 160 452T200 414T255 399H482V314H262Q225
314 199 298T158 255T143 198Q143 168 157 142T197 101T258 85H519V0H245ZM175 757L267 880H371L463 757H385L319 842L253 757H175Z" />
<glyph unicode="&#xcb;" horiz-adv-x="563" d="M426 756Q404 756 389 772T373 809Q373 831 388 846T426 862Q447 862 463 847T479 809Q479 788 463 772T426 756ZM237 756Q215 756 200 772T184 809Q184 831 199 846T237 862Q258 862 274 847T290 809Q290 788 274
772T237 756ZM245 0Q187 0 143 27T73 100T48 198Q48 246 70 288T136 354Q94 381 72 421T50 505Q50 559 75 603T145 673T242 700H519V615H253Q222 615 198 600T160 561T146 505Q146 476 160 452T200 414T255 399H482V314H262Q225 314 199 298T158 255T143 198Q143
168 157 142T197 101T258 85H519V0H245Z" />
<glyph unicode="&#xcc;" horiz-adv-x="469" d="M52 0V85H187V615H52V700H417V615H283V85H417V0H52ZM197 757L105 880H194L286 757H197Z" />
<glyph unicode="&#xcd;" horiz-adv-x="469" d="M52 0V85H187V615H52V700H417V615H283V85H417V0H52ZM193 758L285 881H374L282 758H193Z" />
<glyph unicode="&#xce;" horiz-adv-x="469" d="M52 0V85H187V615H52V700H417V615H283V85H417V0H52ZM91 757L183 880H287L379 757H301L235 842L169 757H91Z" />
<glyph unicode="&#xcf;" horiz-adv-x="469" d="M329 756Q307 756 292 772T276 809Q276 831 291 846T329 862Q351 862 366 847T382 809Q382 788 367 772T329 756ZM140 756Q118 756 103 772T87 809Q87 831 102 846T140 862Q162 862 177 847T193 809Q193 788 178
772T140 756ZM52 0V85H187V615H52V700H417V615H283V85H417V0H52Z" />
<glyph unicode="&#xd0;" horiz-adv-x="707" d="M76 0V312H0V397H76V700H300Q412 700 493 655T620 531T665 350Q665 248 620 169T494 45T300 0H76ZM172 85H301Q379 85 439 117T535 208T570 350Q570 433 535 492T440 583T301 615H172V397H318V312H172V85Z" />
<glyph unicode="&#xd1;" horiz-adv-x="803" d="M545 -12Q489 -12 447 13T380 83T356 182V531Q356 558 343 580T308 615T260 628Q234 628 213 615T179 580T166 531V0H70V518Q70 573 94 617T161 686T260 712Q317 712 360 687T427 617T451 518V169Q451 142 464 120T498
85T545 72Q570 72 591 85T624 120T637 169V700H733V182Q733 127 709 83T643 14T545 -12ZM481 747Q454 747 437 755T409 774T388 797Q378 809 368 817T343 826Q330 826 320 815T309 782V757H249V781Q249 829 277 858T346 887Q381 887 401 872T436 841Q446 828 457
818T484 807Q498 807 508 818T518 852V877H578V853Q578 804 550 776T481 747Z" />
<glyph unicode="&#xd2;" horiz-adv-x="812" d="M406 -13Q323 -13 256 15T142 94T68 210T42 351Q42 425 68 491T141 607T256 685T406 713Q489 713 556 685T670 607T744 491T770 350Q770 276 744 210T671 94T556 16T406 -13ZM406 72Q463 72 512 93T597 152T654 240T674
351Q674 410 654 461T598 549T513 607T406 628Q348 628 299 608T214 550T158 461T138 350Q138 291 158 241T214 152T299 93T406 72ZM372 757L280 880H369L461 757H372Z" />
<glyph unicode="&#xd3;" horiz-adv-x="812" d="M406 -13Q323 -13 256 15T142 94T68 210T42 351Q42 425 68 491T141 607T256 685T406 713Q489 713 556 685T670 607T744 491T770 350Q770 276 744 210T671 94T556 16T406 -13ZM406 72Q463 72 512 93T597 152T654 240T674
351Q674 410 654 461T598 549T513 607T406 628Q348 628 299 608T214 550T158 461T138 350Q138 291 158 241T214 152T299 93T406 72ZM365 757L457 880H546L454 757H365Z" />
<glyph unicode="&#xd4;" horiz-adv-x="812" d="M406 -13Q323 -13 256 15T142 94T68 210T42 351Q42 425 68 491T141 607T256 685T406 713Q489 713 556 685T670 607T744 491T770 350Q770 276 744 210T671 94T556 16T406 -13ZM406 72Q463 72 512 93T597 152T654 240T674
351Q674 410 654 461T598 549T513 607T406 628Q348 628 299 608T214 550T158 461T138 350Q138 291 158 241T214 152T299 93T406 72ZM261 757L353 880H457L549 757H471L405 842L339 757H261Z" />
<glyph unicode="&#xd5;" horiz-adv-x="812" d="M406 -13Q323 -13 256 15T142 94T68 210T42 351Q42 425 68 491T141 607T256 685T406 713Q489 713 556 685T670 607T744 491T770 350Q770 276 744 210T671 94T556 16T406 -13ZM406 72Q463 72 512 93T597 152T654 240T674
351Q674 410 654 461T598 549T513 607T406 628Q348 628 299 608T214 550T158 461T138 350Q138 291 158 241T214 152T299 93T406 72ZM472 747Q445 747 428 755T400 774T379 797Q369 809 359 817T334 826Q321 826 311 815T300 782V757H240V781Q240 829 268 858T337
887Q372 887 392 872T427 841Q437 828 448 818T475 807Q489 807 499 818T509 852V877H569V853Q569 804 541 776T472 747Z" />
<glyph unicode="&#xd6;" horiz-adv-x="812" d="M500 756Q478 756 463 772T447 809Q447 831 462 846T500 862Q522 862 537 847T553 809Q553 788 538 772T500 756ZM311 756Q289 756 274 772T258 809Q258 831 273 846T311 862Q333 862 348 847T364 809Q364 788 349
772T311 756ZM406 -13Q323 -13 256 15T142 94T68 210T42 351Q42 426 68 491T141 607T256 685T406 713Q489 713 556 685T670 607T744 492T770 351Q770 276 744 210T671 94T556 16T406 -13ZM406 72Q463 72 512 93T597 152T654 240T674 351Q674 410 654 461T598 549T512
607T406 628Q348 628 299 608T214 550T158 461T138 351Q138 291 158 241T214 152T299 93T406 72Z" />
<glyph unicode="&#xd7;" horiz-adv-x="544" d="M124 141L64 199L214 349L67 495L124 555L272 407L420 555L479 496L331 348L479 199L420 141L272 290L124 141Z" />
<glyph unicode="&#xd8;" horiz-adv-x="812" d="M406 -12Q342 -12 287 7T186 60L130 0H39L135 105Q91 154 67 216T42 350Q42 425 68 490T141 606T256 684T406 712Q470 712 525 693T625 640L682 701H774L676 595Q720 546 745 483T770 350Q770 275 744 210T671 94T556
16T406 -12ZM406 72Q463 72 512 93T597 151T654 239T674 350Q674 401 659 446T616 526L244 126Q277 101 318 87T406 72ZM195 174L566 574Q534 599 494 613T406 628Q348 628 299 607T214 549T158 461T138 350Q138 299 153 254T195 174Z" />
<glyph unicode="&#xd9;" horiz-adv-x="701" d="M351 -12Q270 -12 207 22T109 120T73 271V700H169V261Q169 210 191 167T254 99T351 73Q407 73 448 98T510 167T532 261V700H628V271Q628 184 593 120T495 22T351 -12ZM318 757L226 880H315L407 757H318Z" />
<glyph unicode="&#xda;" horiz-adv-x="701" d="M351 -12Q270 -12 207 22T109 120T73 271V700H169V261Q169 210 191 167T254 99T351 73Q407 73 448 98T510 167T532 261V700H628V271Q628 184 593 120T495 22T351 -12ZM307 757L399 880H488L396 757H307Z" />
<glyph unicode="&#xdb;" horiz-adv-x="701" d="M351 -12Q270 -12 207 22T109 120T73 271V700H169V261Q169 210 191 167T254 99T351 73Q407 73 448 98T510 167T532 261V700H628V271Q628 184 593 120T495 22T351 -12ZM207 757L299 880H403L495 757H417L351 842L285
757H207Z" />
<glyph unicode="&#xdc;" horiz-adv-x="701" d="M445 756Q423 756 408 772T392 809Q392 831 407 846T445 862Q466 862 482 847T498 809Q498 788 482 772T445 756ZM256 756Q234 756 219 772T203 809Q203 831 218 846T256 862Q277 862 293 847T309 809Q309 788 293
772T256 756ZM351 -12Q270 -12 207 22T109 120T73 271V700H169V261Q169 210 191 167T254 99T351 73Q407 73 447 98T510 167T532 261V700H628V271Q628 184 593 120T495 22T351 -12Z" />
<glyph unicode="&#xdd;" horiz-adv-x="701" d="M302 0V203Q229 213 178 250T100 348T73 483V700H169V475Q169 423 190 380T252 310T351 283Q409 283 449 309T511 379T532 475V700H628V483Q628 408 601 348T523 250T398 203V0H302ZM310 757L402 880H491L399 757H310Z" />
<glyph unicode="&#xde;" horiz-adv-x="648" d="M76 0V700H172V586H371Q437 586 491 557T577 474T609 350Q609 282 578 229T492 145T369 115H172V0H76ZM172 200H358Q401 200 436 217T492 269T513 350Q513 398 492 431T436 483T359 501H172V200Z" />
<glyph unicode="&#xdf;" horiz-adv-x="631" d="M68 0V498Q68 549 86 593T137 671T217 723T320 742Q386 742 440 717T526 647T559 543Q559 510 548 480T511 426T449 387Q492 370 522 342T567 279T583 208Q583 153 556 106T481 29T372 0H265V79H354Q396 79 426 97T473
146T490 209Q490 244 471 273T418 322T337 341H300V420H333Q376 421 405 435T450 477T466 538Q466 577 446 605T393 647T320 662Q276 662 240 642T181 584T159 495V0H68Z" />
<glyph unicode="&#xe0;" horiz-adv-x="638" d="M285 -12Q211 -12 157 23T74 120T45 255Q45 330 77 390T169 486T313 522Q394 522 452 487T541 392T573 258V0H480V104H478Q463 75 438 49T374 5T285 -12ZM309 67Q359 67 397 91T457 159T479 257Q479 310 459 352T400
418T311 443Q257 443 219 418T160 351T139 254Q139 202 159 160T217 92T309 67ZM275 577L183 700H272L364 577H275Z" />
<glyph unicode="&#xe1;" horiz-adv-x="638" d="M285 -12Q211 -12 157 23T74 120T45 255Q45 330 77 390T169 486T313 522Q394 522 452 487T541 392T573 258V0H480V104H478Q463 75 438 49T374 5T285 -12ZM309 67Q359 67 397 91T457 159T479 257Q479 310 459 352T400
418T311 443Q257 443 219 418T160 351T139 254Q139 202 159 160T217 92T309 67ZM273 577L365 700H454L362 577H273Z" />
<glyph unicode="&#xe2;" horiz-adv-x="638" d="M285 -12Q211 -12 157 23T74 120T45 255Q45 330 77 390T169 486T313 522Q394 522 452 487T541 392T573 258V0H480V104H478Q463 75 438 49T374 5T285 -12ZM309 67Q359 67 397 91T457 159T479 257Q479 310 459 352T400
418T311 443Q257 443 219 418T160 351T139 254Q139 202 159 160T217 92T309 67ZM169 577L261 700H365L457 577H379L313 662L247 577H169Z" />
<glyph unicode="&#xe3;" horiz-adv-x="638" d="M285 -12Q211 -12 157 23T74 120T45 255Q45 330 77 390T169 486T313 522Q394 522 452 487T541 392T573 258V0H480V104H478Q463 75 438 49T374 5T285 -12ZM309 67Q359 67 397 91T457 159T479 257Q479 310 459 352T400
418T311 443Q257 443 219 418T160 351T139 254Q139 202 159 160T217 92T309 67ZM379 575Q352 575 335 583T307 602T286 625Q276 637 266 645T241 654Q228 654 218 643T207 610V585H147V609Q147 657 175 686T244 715Q279 715 299 700T334 669Q344 656 355 646T382
635Q396 635 406 646T416 680V705H476V681Q476 632 448 604T379 575Z" />
<glyph unicode="&#xe4;" horiz-adv-x="638" d="M408 596Q387 596 371 612T355 649Q355 671 371 686T408 702Q430 702 445 687T461 649Q461 628 446 612T408 596ZM219 596Q198 596 182 612T166 649Q166 671 182 686T219 702Q241 702 256 687T272 649Q272 628 257
612T219 596ZM285 -12Q211 -12 157 23T74 120T45 255Q45 330 77 390T169 486T313 522Q394 522 452 487T541 392T573 258V0H480V104H478Q463 75 438 49T374 5T285 -12ZM309 67Q359 67 397 91T457 159T479 257Q479 310 459 352T400 418T311 443Q257 443 219 418T160
351T139 254Q139 202 159 160T217 92T309 67Z" />
<glyph unicode="&#xe5;" horiz-adv-x="638" d="M285 -12Q211 -12 157 23T74 120T45 255Q45 330 77 390T169 486T313 522Q394 522 452 487T541 392T573 258V0H480V104H478Q463 75 438 49T374 5T285 -12ZM309 67Q359 67 397 91T457 159T479 257Q479 310 459 352T400
418T311 443Q257 443 219 418T160 351T139 254Q139 202 159 160T217 92T309 67ZM308 565Q268 565 241 592T213 660Q213 700 240 727T308 755Q348 755 375 728T403 660Q403 620 376 593T308 565ZM308 607Q330 607 345 622T360 660Q360 683 345 698T308 713Q286 713
271 698T256 660Q256 638 271 623T308 607Z" />
<glyph unicode="&#xe6;" horiz-adv-x="931" d="M187 0Q147 0 115 20T64 74T44 151Q44 197 63 228T115 277T187 295H411V366Q411 395 393 413T346 431H92V510H355Q397 510 428 487T471 426Q501 469 547 495T651 522Q730 522 782 488T861 397T888 268Q888 257 887
245T884 224H504Q509 177 535 145T601 96T691 79H824V0H693Q624 0 568 24T477 93Q464 53 430 27T349 0H187ZM207 79H341Q371 79 391 99T412 150V231H209Q175 231 155 209T135 156Q135 136 144 118T169 90T207 79ZM504 289H795Q794 308 790 329T776 371T750 408T709
435T651 445Q617 445 590 432T545 396T516 345T504 289Z" />
<glyph unicode="&#xe7;" horiz-adv-x="416" d="M320 0Q241 0 179 34T81 125T45 255Q45 327 81 384T179 476T320 510H380V431H317Q266 431 226 408T162 344T138 255Q138 206 161 166T225 103T317 79H380V0H320ZM137 -203L231 20H321L226 -203H137Z" />
<glyph unicode="&#xe8;" horiz-adv-x="570" d="M332 0Q248 0 183 31T82 120T45 255Q45 331 76 391T162 487T290 522Q369 522 421 488T500 397T526 268Q526 257 526 245T523 224H143Q148 177 174 145T240 96T330 79H463V0H332ZM142 289H433Q433 308 429 329T415
371T389 408T348 435T290 445Q255 445 229 432T183 396T154 345T142 289ZM255 577L163 700H252L344 577H255Z" />
<glyph unicode="&#xe9;" horiz-adv-x="570" d="M332 0Q248 0 183 31T82 120T45 255Q45 331 76 391T162 487T290 522Q369 522 421 488T500 397T526 268Q526 257 526 245T523 224H143Q148 177 174 145T240 96T330 79H463V0H332ZM142 289H433Q433 308 429 329T415
371T389 408T348 435T290 445Q255 445 229 432T183 396T154 345T142 289ZM254 577L346 700H435L343 577H254Z" />
<glyph unicode="&#xea;" horiz-adv-x="570" d="M332 0Q248 0 183 31T82 120T45 255Q45 331 76 391T162 487T290 522Q369 522 421 488T500 397T526 268Q526 257 526 245T523 224H143Q148 177 174 145T240 96T330 79H463V0H332ZM142 289H433Q433 308 429 329T415
371T389 408T348 435T290 445Q255 445 229 432T183 396T154 345T142 289ZM153 577L245 700H349L441 577H363L297 662L231 577H153Z" />
<glyph unicode="&#xeb;" horiz-adv-x="570" d="M391 596Q369 596 354 612T338 649Q338 671 353 686T391 702Q412 702 428 687T444 649Q444 628 428 612T391 596ZM202 596Q180 596 165 612T149 649Q149 671 164 686T202 702Q223 702 239 687T255 649Q255 628 239
612T202 596ZM332 0Q248 0 183 31T82 120T45 255Q45 331 76 391T162 487T290 522Q369 522 421 488T500 397T526 268Q526 257 526 245T523 224H143Q148 177 174 145T240 96T330 79H463V0H332ZM142 289H433Q433 308 429 329T415 371T389 408T348 435T290 445Q255
445 229 432T183 396T154 345T142 289Z" />
<glyph unicode="&#xec;" horiz-adv-x="238" d="M73 0V510H166V0H73ZM77 577L-15 700H74L166 577H77Z" />
<glyph unicode="&#xed;" horiz-adv-x="238" d="M73 0V510H166V0H73ZM65 577L157 700H246L154 577H65Z" />
<glyph unicode="&#xee;" horiz-adv-x="238" d="M73 0V510H166V0H73ZM-25 577L67 700H171L263 577H185L119 662L53 577H-25Z" />
<glyph unicode="&#xef;" horiz-adv-x="238" d="M214 597Q192 597 177 612T161 650Q161 672 176 687T214 703Q235 703 251 688T267 650Q267 628 251 613T214 597ZM25 597Q3 597 -12 612T-28 650Q-28 672 -13 687T25 703Q46 703 62 688T78 650Q78 628 62 613T25
597ZM73 0V510H166V0H73Z" />
<glyph unicode="&#xf0;" horiz-adv-x="624" d="M308 -12Q250 -12 202 6T119 60T65 145T45 255Q45 337 78 395T165 484T280 515Q309 515 336 507T385 485L387 486L308 605L167 583V640L272 657L224 730L333 731L371 671L477 687V631L404 619L496 477Q520 438 536
402T561 331T569 260Q569 174 535 113T442 20T308 -12ZM308 67Q355 67 393 90T453 155T476 254Q476 315 453 356T392 420T309 443Q261 443 222 419T161 352T138 255Q138 197 161 155T222 90T308 67Z" />
<glyph unicode="&#xf1;" horiz-adv-x="622" d="M73 0V295Q73 363 103 414T188 493T311 522Q381 522 434 494T518 414T549 295V0H457V294Q457 340 437 373T383 425T311 443Q273 443 240 425T186 374T165 294V0H73ZM382 576Q355 576 338 584T310 603T289 626Q279
638 269 646T244 655Q231 655 221 644T210 611V586H150V610Q150 658 178 687T247 716Q282 716 302 701T337 670Q347 657 358 647T385 636Q399 636 409 647T419 681V706H479V682Q479 633 451 605T382 576Z" />
<glyph unicode="&#xf2;" horiz-adv-x="626" d="M313 -12Q235 -12 175 23T80 119T45 255Q45 330 80 390T175 486T313 522Q391 522 451 487T546 391T581 255Q581 180 547 120T452 24T313 -12ZM313 67Q366 67 405 92T466 159T488 255Q488 308 466 350T405 418T313
443Q261 443 222 418T160 351T138 255Q138 202 160 160T221 92T313 67ZM276 577L184 700H273L365 577H276Z" />
<glyph unicode="&#xf3;" horiz-adv-x="626" d="M313 -12Q235 -12 175 23T80 119T45 255Q45 330 80 390T175 486T313 522Q391 522 451 487T546 391T581 255Q581 180 547 120T452 24T313 -12ZM313 67Q366 67 405 92T466 159T488 255Q488 308 466 350T405 418T313
443Q261 443 222 418T160 351T138 255Q138 202 160 160T221 92T313 67ZM273 577L365 700H454L362 577H273Z" />
<glyph unicode="&#xf4;" horiz-adv-x="626" d="M313 -12Q235 -12 175 23T80 119T45 255Q45 330 80 390T175 486T313 522Q391 522 451 487T546 391T581 255Q581 180 547 120T452 24T313 -12ZM313 67Q366 67 405 92T466 159T488 255Q488 308 466 350T405 418T313
443Q261 443 222 418T160 351T138 255Q138 202 160 160T221 92T313 67ZM171 577L263 700H367L459 577H381L315 662L249 577H171Z" />
<glyph unicode="&#xf5;" horiz-adv-x="626" d="M313 -12Q235 -12 175 23T80 119T45 255Q45 330 80 390T175 486T313 522Q391 522 451 487T546 391T581 255Q581 180 547 120T452 24T313 -12ZM313 67Q366 67 405 92T466 159T488 255Q488 308 466 350T405 418T313
443Q261 443 222 418T160 351T138 255Q138 202 160 160T221 92T313 67ZM379 575Q352 575 335 583T307 602T286 625Q276 637 266 645T241 654Q228 654 218 643T207 610V585H147V609Q147 657 175 686T244 715Q279 715 299 700T334 669Q344 656 355 646T382 635Q396
635 406 646T416 680V705H476V681Q476 632 448 604T379 575Z" />
<glyph unicode="&#xf6;" horiz-adv-x="626" d="M406 596Q384 596 369 612T353 649Q353 671 368 686T406 702Q427 702 443 687T459 649Q459 628 443 612T406 596ZM217 596Q195 596 180 612T164 649Q164 671 179 686T217 702Q238 702 254 687T270 649Q270 628 254
612T217 596ZM313 -12Q235 -12 175 23T80 119T45 255Q45 330 80 390T175 486T313 522Q391 522 451 487T546 391T581 255Q581 180 547 120T452 24T313 -12ZM313 67Q366 67 405 92T466 159T488 255Q488 308 466 350T405 418T313 443Q261 443 222 418T160 351T138
255Q138 202 160 160T221 92T313 67Z" />
<glyph unicode="&#xf7;" horiz-adv-x="586" d="M294 471Q266 471 247 491T227 538Q227 566 246 585T294 605Q321 605 341 586T361 538Q361 511 341 491T294 471ZM294 95Q266 95 247 114T227 162Q227 189 246 209T294 229Q321 229 341 209T361 162Q361 134 341
115T294 95ZM64 307V389H522V307H64Z" />
<glyph unicode="&#xf8;" horiz-adv-x="626" d="M313 -12Q267 -12 227 1T153 39L117 0H32L106 81Q77 115 61 160T45 255Q45 330 80 390T175 486T313 522Q358 522 398 510T469 474L502 510H587L517 433Q548 398 564 353T581 255Q581 180 547 120T452 24T313 -12ZM313
67Q366 67 405 92T466 159T488 255Q488 287 479 315T454 365L210 102Q231 86 257 77T313 67ZM169 148L412 412Q392 427 367 435T313 443Q261 443 222 418T160 351T138 255Q138 224 146 198T169 148Z" />
<glyph unicode="&#xf9;" horiz-adv-x="624" d="M312 -12Q243 -12 189 16T104 96T73 215V510H166V216Q166 170 186 137T239 85T311 67Q350 67 383 85T437 136T458 216V510H551V215Q551 147 520 96T435 17T312 -12ZM267 577L175 700H264L356 577H267Z" />
<glyph unicode="&#xfa;" horiz-adv-x="624" d="M312 -12Q243 -12 189 16T104 96T73 215V510H166V216Q166 170 186 137T239 85T311 67Q350 67 383 85T437 136T458 216V510H551V215Q551 147 520 96T435 17T312 -12ZM268 577L360 700H449L357 577H268Z" />
<glyph unicode="&#xfb;" horiz-adv-x="624" d="M312 -12Q243 -12 189 16T104 96T73 215V510H166V216Q166 170 186 137T239 85T311 67Q350 67 383 85T437 136T458 216V510H551V215Q551 147 520 96T435 17T312 -12ZM167 577L259 700H363L455 577H377L311 662L245 577H167Z" />
<glyph unicode="&#xfc;" horiz-adv-x="624" d="M408 596Q386 596 371 612T355 649Q355 671 370 686T408 702Q429 702 445 687T461 649Q461 628 445 612T408 596ZM219 596Q197 596 182 612T166 649Q166 671 181 686T219 702Q240 702 256 687T272 649Q272 628 256
612T219 596ZM312 -12Q243 -12 189 16T104 96T73 215V510H166V216Q166 170 186 137T239 85T311 67Q350 67 383 85T437 136T458 216V510H551V215Q551 147 520 96T435 17T312 -12Z" />
<glyph unicode="&#xfd;" horiz-adv-x="623" d="M266 -203V-8Q210 0 167 29T98 106T73 215V510H166V216Q166 170 186 137T239 85T311 67Q350 67 383 85T437 136T458 216V510H550V215Q550 154 526 107T458 31T358 -8V-203H266ZM264 577L356 700H445L353 577H264Z" />
<glyph unicode="&#xfe;" horiz-adv-x="642" d="M73 -203V730H165V425H167Q187 454 215 476T277 510T349 522Q417 522 473 490T563 398T597 255Q597 192 578 142T524 58T444 6T348 -12Q295 -12 247 12T166 82H165V-203H73ZM334 67Q381 67 419 90T481 155T504 255Q504
311 482 353T421 419T335 443Q288 443 250 420T189 355T166 254Q166 197 188 155T249 90T334 67Z" />
<glyph unicode="&#xff;" horiz-adv-x="623" d="M411 596Q389 596 374 612T358 649Q358 671 373 686T411 702Q432 702 448 687T464 649Q464 628 448 612T411 596ZM222 596Q200 596 185 612T169 649Q169 671 184 686T222 702Q243 702 259 687T275 649Q275 628 259
612T222 596ZM266 -203V-8Q210 0 167 29T98 106T73 215V510H166V216Q166 170 186 137T239 85T311 67Q350 67 383 85T437 136T458 216V510H550V215Q550 154 526 107T458 31T358 -8V-203H266Z" />
<glyph unicode="&#x2013;" horiz-adv-x="500" d="M0 219V303H500V219H0Z" />
<glyph unicode="&#x2014;" horiz-adv-x="1000" d="M0 219V303H1000V219H0Z" />
<glyph unicode="&#x2018;" horiz-adv-x="217" d="M104 406Q74 406 56 426T38 474Q38 493 41 509T52 548L98 700H176L125 534Q147 528 158 509T170 471Q170 444 151 425T104 406Z" />
<glyph unicode="&#x2019;" horiz-adv-x="217" d="M41 416L92 582Q70 589 59 607T47 646Q47 673 66 692T113 711Q143 711 161 691T179 642Q179 623 176 607T165 569L119 416H41Z" />
<glyph unicode="&#x201a;" horiz-adv-x="208" d="M38 -150L83 -6Q61 1 50 19T38 57Q38 85 57 103T104 122Q134 122 152 102T170 54Q170 35 167 19T156 -19L116 -150H38Z" />
<glyph unicode="&#x201c;" horiz-adv-x="416" d="M104 406Q74 406 56 426T38 474Q38 493 41 509T52 548L98 700H176L125 534Q147 528 158 509T170 471Q170 444 151 425T104 406ZM308 406Q278 406 260 426T242 474Q242 493 245 509T256 548L302 700H380L329 534Q351
528 362 509T374 471Q374 444 355 425T308 406Z" />
<glyph unicode="&#x201d;" horiz-adv-x="420" d="M41 416L92 582Q70 589 59 607T47 646Q47 673 66 692T113 711Q143 711 161 691T179 642Q179 623 176 607T165 569L119 416H41ZM244 416L295 582Q273 589 262 607T250 646Q250 673 269 692T316 711Q346 711 364
691T382 642Q382 623 379 607T368 569L322 416H244Z" />
<glyph unicode="&#x201e;" horiz-adv-x="421" d="M38 -150L83 -6Q61 1 50 19T38 57Q38 85 57 103T104 122Q134 122 152 102T170 54Q170 35 167 19T156 -19L116 -150H38ZM246 -150L291 -6Q269 1 258 19T246 57Q246 85 265 103T312 122Q342 122 360 102T378 54Q378
35 375 19T364 -19L324 -150H246Z" />
<glyph unicode="&#x2022;" horiz-adv-x="294" d="M147 226Q113 226 89 250T65 309Q65 343 89 367T147 392Q181 392 205 368T230 309Q230 275 206 251T147 226Z" />
<glyph unicode="&#x2039;" horiz-adv-x="309" d="M183 119L36 314L183 510H273L128 314L273 119H183Z" />
<glyph unicode="&#x203a;" horiz-adv-x="309" d="M36 119L180 314L36 510H126L273 314L126 119H36Z" />
</font>
</defs>
</svg>
