<?xml version="1.0" standalone="no"?>
<!DOCTYPE svg PUBLIC "-//W3C//DTD SVG 1.1//EN" "http://www.w3.org/Graphics/SVG/1.1/DTD/svg11.dtd">
<svg xmlns="http://www.w3.org/2000/svg">
<defs >
<font id="MuseoModerno" horiz-adv-x="599" ><font-face
    font-family="MuseoModerno Thin ExtraBold"
    units-per-em="1000"
    panose-1="0 0 0 0 0 0 0 0 0 0"
    ascent="1145"
    descent="-445"
    alphabetic="0" />
<glyph unicode=" " horiz-adv-x="265" />
<glyph unicode="!" horiz-adv-x="287" d="M61 242V700H227V242H61ZM144 -13Q103 -13 74 17T45 88Q45 129 74 158T144 188Q186 188 215 159T245 88Q245 61 232 38T195 1T144 -13Z" />
<glyph unicode="&quot;" horiz-adv-x="475" d="M281 375V700H428V375H281ZM48 375V700H194V375H48Z" />
<glyph unicode="#" horiz-adv-x="725" d="M126 0L144 155H20V274H158L176 426H54V545H189L207 700H335L317 545H451L469 700H597L579 545H705V426H566L548 274H671V155H535L517 0H388L406 155H272L254 0H126ZM286 274H420L437 426H304L286 274Z" />
<glyph unicode="$" horiz-adv-x="637" d="M262 -119V78H380V-119H262ZM262 627V819H380V627H262ZM60 0V155H358Q377 155 390 163T412 185T420 215Q420 232 412 246T391 268T358 276H259Q196 276 145 301T64 372T33 485Q33 550 62 598T140 673T249 700H563V545H273Q257
545 245 538T225 518T218 491Q218 476 225 464T244 444T273 436H378Q447 436 498 410T578 338T606 228Q606 156 577 105T498 27T388 0H60Z" />
<glyph unicode="%" horiz-adv-x="932" d="M218 323Q166 323 126 344T63 401T40 482V554Q40 600 63 635T126 692T218 713Q269 713 309 692T372 636T395 554V482Q395 438 372 402T308 344T218 323ZM218 432Q234 432 246 439T266 459T274 489V548Q274 565 267 578T247
598T218 606Q203 606 190 599T169 578T161 548V489Q161 472 169 460T190 440T218 432ZM715 -13Q664 -13 624 8T560 65T537 146V218Q537 264 560 299T623 356T715 377Q767 377 807 356T869 300T892 218V146Q892 102 869 66T805 8T715 -13ZM716 96Q730 96 743 103T764
123T772 153V212Q772 229 764 242T743 262T716 270Q700 270 687 263T666 242T658 212V153Q658 136 666 124T687 104T716 96ZM171 0L633 700H760L298 0H171Z" />
<glyph unicode="&amp;" horiz-adv-x="853" d="M674 -216Q624 -216 587 -195T530 -140T510 -66Q510 -37 521 -12T553 34T597 66Q595 68 594 69T589 72L553 103Q525 65 487 40T402 1T301 -13Q217 -13 155 17T60 101T27 222Q27 269 44 309T91 382T163 436Q150 450
141 467T126 503T120 543Q120 590 144 628T211 690T308 713Q360 713 402 694T468 638T492 551Q492 511 470 474T403 411L513 322L515 327Q536 376 555 408T597 460T650 488T723 496H800V374H749Q723 374 706 368T677 347T652 307T624 242L621 234L627 230Q709 167
756 119T825 30T846 -57Q846 -103 824 -139T764 -195T674 -216ZM320 133Q345 133 366 140T407 160T440 195L258 345Q242 337 228 324T206 292T197 247Q197 216 213 190T258 149T320 133ZM673 -108Q688 -108 698 -96T708 -65Q708 -51 703 -38T684 -15Q670 -18 659
-25T642 -44T636 -70Q636 -86 646 -97T673 -108ZM311 484Q321 493 328 503T340 524T344 547Q344 563 333 575T304 588Q293 588 284 583T271 569T266 548Q266 535 272 524T289 503T311 484Z" />
<glyph unicode="&apos;" horiz-adv-x="250" d="M47 375V700H202V375H47Z" />
<glyph unicode="(" horiz-adv-x="365" d="M202 -180Q138 -103 95 10T52 275Q52 426 95 540T202 730H365Q299 650 260 535T221 280Q221 143 260 25T365 -180H202Z" />
<glyph unicode=")" horiz-adv-x="365" d="M0 -180Q66 -94 104 24T143 280Q143 419 105 534T0 730H163Q227 654 270 540T313 275Q313 124 270 11T163 -180H0Z" />
<glyph unicode="*" horiz-adv-x="450" d="M178 328V433L87 381L40 462L131 514L40 567L87 648L178 595V701H272V595L363 648L410 567L319 514L410 462L363 381L272 433V328H178Z" />
<glyph unicode="+" horiz-adv-x="572" d="M210 116V280H43V420H210V584H361V420H529V280H361V116H210Z" />
<glyph unicode="," horiz-adv-x="266" d="M40 -157L94 -4Q66 9 51 34T35 86Q35 130 64 159T134 188Q179 188 207 157T235 83Q235 56 230 31T212 -24L164 -157H40Z" />
<glyph unicode="-" horiz-adv-x="363" d="M40 194V319H323V194H40Z" />
<glyph unicode="." horiz-adv-x="267" d="M134 -13Q93 -13 64 17T35 88Q35 129 64 158T134 188Q176 188 205 159T235 88Q235 61 222 38T185 1T134 -13Z" />
<glyph unicode="/" horiz-adv-x="375" d="M-30 -100L253 730H390L107 -100H-30Z" />
<glyph unicode="0" horiz-adv-x="658" d="M330 -13Q246 -13 183 21T83 113T47 246V454Q47 529 83 587T182 679T330 713Q413 713 476 679T575 587T611 454V246Q611 172 574 114T474 21T330 -13ZM330 149Q357 149 379 161T415 195T429 245V455Q429 484 416 506T380
540T330 552Q303 552 280 540T243 506T229 455V245Q229 217 243 196T280 162T330 149Z" />
<glyph unicode="1" horiz-adv-x="490" d="M35 0V161H164V539H46V700H346V161H462V0H35Z" />
<glyph unicode="2" horiz-adv-x="575" d="M195 0Q149 0 114 20T60 73T40 146Q40 181 57 213T104 268L309 412Q328 426 337 442T347 477Q347 497 338 510T314 531T277 539H69V700H294Q362 700 414 670T497 590T528 478Q528 416 503 369T420 285L258 179Q255 178
253 176T251 170Q251 165 254 163T264 161H540V0H195Z" />
<glyph unicode="3" horiz-adv-x="575" d="M40 0V160L281 159Q300 159 314 166T337 187T346 219Q346 237 338 250T315 270T281 278H75V428H285Q302 428 316 434T338 453T346 483Q346 501 338 513T316 532T285 539H40V700H320Q382 700 429 673T503 602T530 505Q530
465 512 427T458 358Q482 340 499 317T525 266T534 208Q534 149 506 102T428 28T317 0H40Z" />
<glyph unicode="4" horiz-adv-x="662" d="M367 0V143H178Q134 143 99 162T44 215T24 288Q24 309 29 328T43 366L210 700H411L220 326Q219 321 218 318T217 311Q217 305 221 302T234 298H367V500H548V298H634V143H548V0H367Z" />
<glyph unicode="5" horiz-adv-x="570" d="M30 0V161H285Q306 161 322 170T349 195T359 231Q359 251 349 266T323 291T285 300H56V700H497V539H232V453H305Q374 453 427 423T510 343T541 230Q541 167 510 115T426 32T305 0H30Z" />
<glyph unicode="6" horiz-adv-x="625" d="M313 -11Q226 -11 164 21T69 109T35 232Q35 300 60 360T126 482L272 700H484L332 470Q344 470 356 470T379 468Q443 461 490 429T563 346T589 232Q589 165 556 110T462 22T313 -11ZM313 149Q345 149 366 160T397 192T408
236Q408 260 398 280T366 313T313 325Q281 325 260 313T227 281T216 236Q216 212 227 192T259 161T313 149Z" />
<glyph unicode="7" horiz-adv-x="545" d="M45 0L323 514Q326 523 326 527Q326 533 323 536T311 539H25V700H365Q408 700 443 681T499 629T520 555Q520 534 515 513T501 474L249 0H45Z" />
<glyph unicode="8" horiz-adv-x="647" d="M324 -13Q240 -13 177 16T77 96T40 210Q40 244 52 273T85 326T131 364Q97 386 77 422T56 506Q56 563 89 610T183 685T324 713Q404 713 464 685T558 610T592 506Q592 459 571 423T516 364Q541 350 561 326T594 273T607
210Q607 147 571 97T471 17T324 -13ZM324 147Q353 147 375 156T410 183T423 222Q423 255 396 277T324 299Q279 299 253 277T226 222Q226 201 238 184T272 157T324 147ZM324 432Q361 432 384 451T407 496Q407 513 397 527T368 550T324 559Q298 559 279 551T250 528T239
496Q239 470 262 451T324 432Z" />
<glyph unicode="9" horiz-adv-x="625" d="M141 0L293 230Q282 230 270 230T246 232Q183 240 136 272T62 355T35 468Q35 535 68 590T164 678T313 711Q400 711 461 679T556 591T589 468Q589 423 578 382T547 300T499 218L353 0H141ZM313 375Q345 375 366 387T397
420T408 464Q408 489 398 508T366 539T313 551Q281 551 260 540T227 509T216 464Q216 440 227 420T259 388T313 375Z" />
<glyph unicode=":" horiz-adv-x="267" d="M134 326Q93 326 64 356T35 427Q35 468 64 497T134 527Q176 527 205 498T235 427Q235 400 222 377T185 340T134 326ZM134 -13Q93 -13 64 17T35 88Q35 129 64 158T134 188Q176 188 205 159T235 88Q235 61 222 38T185 1T134 -13Z" />
<glyph unicode=";" horiz-adv-x="266" d="M134 328Q93 328 64 357T35 427Q35 469 64 498T134 528Q176 528 205 499T235 427Q235 387 206 358T134 328ZM40 -157L94 -4Q66 9 51 34T35 86Q35 130 64 159T134 188Q179 188 207 157T235 83Q235 56 230 31T212 -24L164 -157H40Z" />
<glyph unicode="&lt;" horiz-adv-x="572" d="M529 99L43 276V423L529 600V455L220 349L529 246V99Z" />
<glyph unicode="=" horiz-adv-x="572" d="M43 403V542H529V403H43ZM43 158V297H529V158H43Z" />
<glyph unicode="&gt;" horiz-adv-x="572" d="M43 99V246L352 349L43 455V600L529 423V276L43 99Z" />
<glyph unicode="?" horiz-adv-x="410" d="M109 233V364Q142 364 166 378T203 415T216 465Q216 494 204 516T167 551T110 564H55V700H123Q197 700 255 671T346 589T380 469Q380 401 347 348T253 264T109 233ZM144 -13Q102 -13 73 17T44 88Q44 129 73 158T144 188Q185
188 214 159T244 88Q244 61 231 38T195 1T144 -13Z" />
<glyph unicode="@" horiz-adv-x="1028" d="M515 -223Q407 -223 319 -185T168 -81T72 69T38 246Q38 340 72 424T169 576T319 681T515 719Q607 719 692 687T845 594T951 450T990 263Q990 189 967 134T898 50T787 21Q748 21 714 36T654 76Q626 50 590 36T515 21Q452
21 399 52T315 135T283 250Q283 315 314 367T399 450T515 481Q580 481 632 450T716 367T748 250V200Q748 188 753 179T768 165T787 160Q807 160 818 173T834 209T839 256Q841 328 815 386T743 487T638 551T515 574Q442 574 382 548T279 476T213 373T189 250Q189
186 212 128T279 24T382 -48T515 -75H578V-223H515ZM515 160Q540 160 559 173T589 206T600 250Q600 275 589 295T559 329T515 342Q491 342 472 329T442 296T431 250Q431 227 442 207T472 173T515 160Z" />
<glyph unicode="A" horiz-adv-x="756" d="M0 0L225 615Q244 664 285 688T378 713Q430 713 471 689T531 616L756 0H551L510 128H242L199 0H0ZM287 280H466L389 533Q388 537 385 539T378 541Q375 541 373 539T368 533L287 280Z" />
<glyph unicode="B" horiz-adv-x="718" d="M53 0V700H470Q525 700 569 677T641 611T668 512Q668 481 656 453T624 402T576 363Q609 348 633 322T671 263T685 193Q685 135 658 92T584 24T482 0H53ZM244 151H436Q455 151 468 159T490 183T498 216Q498 234 490 248T469
270T436 279H244V151ZM244 425H415Q432 425 445 433T466 456T474 486Q474 502 467 515T446 537T415 545H244V425Z" />
<glyph unicode="C" horiz-adv-x="547" d="M412 0Q322 1 251 27T130 100T54 210T27 350Q27 426 53 489T130 600T251 673T412 700H519V545H418Q371 545 335 530T273 489T235 427T222 350Q222 309 235 274T273 212T334 170T418 155H519V0H412Z" />
<glyph unicode="D" horiz-adv-x="720" d="M53 0V700H329Q440 700 521 655T647 531T692 350Q692 248 648 169T522 45T329 0H53ZM244 155H321Q373 155 413 178T476 245T499 350Q499 411 476 454T413 521T321 545H244V155Z" />
<glyph unicode="E" horiz-adv-x="588" d="M247 0Q188 0 139 26T62 99T33 205Q33 250 53 290T109 358Q77 385 58 422T38 500Q38 558 66 603T142 674T247 700H551V545H285Q267 545 253 538T230 518T221 487Q221 470 229 458T252 438T285 430H516V276H287Q268 276
253 269T230 247T221 215Q221 197 229 184T253 163T287 155H551V0H247Z" />
<glyph unicode="F" horiz-adv-x="563" d="M47 0V489Q47 549 76 596T155 672T269 700H538V545H297Q272 545 255 528T238 487V398H506V246H238V0H47Z" />
<glyph unicode="G" horiz-adv-x="807" d="M561 -217Q497 -217 450 -194T378 -130T353 -35Q353 -26 353 -17T355 3Q283 7 223 34T119 109T51 220T27 357Q27 430 53 494T128 608T244 685T395 713Q478 713 545 687T662 613T737 501T764 359V-13Q764 -67 742 -114T674
-189T561 -217ZM553 -59Q570 -59 580 -46T591 -9V143Q566 122 552 101T529 59T519 22T516 -9Q516 -25 521 -36T535 -53T553 -59ZM383 161Q390 161 397 162T410 165Q429 192 454 219T509 271T572 316V368Q572 408 559 442T523 501T467 540T396 555Q358 555 326 540T271
499T234 436T220 357Q220 316 232 281T265 221T317 180T383 161Z" />
<glyph unicode="H" horiz-adv-x="729" d="M53 0V700H244V432H486V700H677V0H486V277H244V0H53Z" />
<glyph unicode="I" horiz-adv-x="498" d="M39 0V155H153V545H39V700H460V545H345V155H460V0H39Z" />
<glyph unicode="J" horiz-adv-x="419" d="M171 -219Q108 -219 67 -195T5 -128T-15 -37Q-15 18 6 75T73 186T191 284V545H51V700H366V12Q366 -62 345 -114T280 -192T171 -219ZM162 -59Q173 -59 181 -53T193 -36T198 -9V130Q167 102 151 76T131 28T126 -11Q126 -34
137 -46T162 -59Z" />
<glyph unicode="K" horiz-adv-x="675" d="M53 0V700H244V424H343Q368 424 388 435T421 468T434 519V700H625V516Q625 452 595 400T513 315L581 171Q586 162 594 157T613 152H671V0H565Q506 0 470 22T415 81L325 270Q319 270 314 270T301 270H244V0H53Z" />
<glyph unicode="L" horiz-adv-x="494" d="M273 0Q205 0 154 29T75 108T47 216V700H238V209Q238 187 253 171T291 155H476V0H273Z" />
<glyph unicode="M" horiz-adv-x="1130" d="M565 -12Q503 -12 450 14T364 90T331 209V497Q331 512 325 523T307 541T282 547Q268 547 257 541T239 524T232 497V0H47V490Q47 558 79 608T164 685T282 713Q346 713 399 686T484 608T516 490V202Q516 188 523 177T541
159T565 152Q578 152 589 158T608 176T615 202V490Q615 558 647 608T732 685T850 713Q913 713 966 686T1051 608T1083 490V0H899V499Q899 513 892 524T874 541T850 547Q836 547 825 541T807 524T800 499V209Q800 140 767 90T681 14T565 -12Z" />
<glyph unicode="N" horiz-adv-x="848" d="M565 -13Q502 -13 449 14T363 91T331 209V497Q331 512 325 523T307 541T282 547Q268 547 257 541T239 524T232 497V0H47V490Q47 558 79 608T164 685T282 713Q346 713 399 686T484 608T516 490V202Q516 187 523 176T541
158T565 151Q578 151 589 157T608 175T615 202V700H800V209Q800 141 768 92T683 15T565 -13Z" />
<glyph unicode="O" horiz-adv-x="805" d="M402 -13Q319 -13 250 14T132 91T55 207T27 350Q27 427 54 493T131 609T250 685T402 713Q486 713 554 686T673 609T750 494T777 350Q777 273 750 207T673 92T555 15T402 -13ZM402 145Q443 145 476 160T534 204T571 270T584
350Q584 393 572 430T535 496T477 539T402 555Q362 555 328 540T270 496T233 431T220 350Q220 307 233 270T270 205T328 161T402 145Z" />
<glyph unicode="P" horiz-adv-x="650" d="M53 0V700H360Q433 700 493 668T589 579T625 446Q625 371 590 314T494 224T360 191H244V0H53ZM244 345H339Q365 345 386 357T419 391T432 445Q432 477 420 499T386 533T339 545H244V345Z" />
<glyph unicode="Q" horiz-adv-x="805" d="M307 -203V19H498V-203H307ZM402 -13Q319 -13 250 14T132 91T55 207T27 350Q27 427 54 493T131 609T250 685T402 713Q486 713 554 686T673 609T750 494T777 350Q777 273 750 207T673 92T555 15T402 -13ZM402 145Q443 145
476 160T534 204T571 270T584 350Q584 393 572 430T535 496T477 539T402 555Q362 555 328 540T270 496T233 431T220 350Q220 307 233 270T270 205T328 161T402 145Z" />
<glyph unicode="R" horiz-adv-x="684" d="M53 0V700H378Q452 700 512 669T608 582T644 452Q644 388 614 335T532 248L579 170Q585 161 592 157T613 152H669V0H565Q515 0 476 22T416 81L345 203Q339 203 333 203T322 203H244V0H53ZM244 355H358Q383 355 404 366T438
400T451 451Q451 480 438 501T404 533T358 545H244V355Z" />
<glyph unicode="S" horiz-adv-x="637" d="M60 0V155H358Q377 155 390 163T412 185T420 215Q420 232 412 246T391 268T358 276H259Q196 276 145 301T64 372T33 485Q33 550 62 598T140 673T249 700H563V545H273Q257 545 245 538T225 518T218 491Q218 476 225 464T244
444T273 436H378Q447 436 498 410T578 338T606 228Q606 156 577 105T498 27T388 0H60Z" />
<glyph unicode="T" horiz-adv-x="590" d="M424 0Q359 0 309 28T230 106T201 216V545H15V700H575V545H392V203Q392 183 406 169T439 155H501V0H424Z" />
<glyph unicode="U" horiz-adv-x="710" d="M356 -12Q266 -12 197 23T89 124T50 279V700H239V270Q239 235 253 207T294 162T356 145Q391 145 417 161T457 206T471 270V700H660V279Q660 190 621 125T514 24T356 -12Z" />
<glyph unicode="V" horiz-adv-x="736" d="M368 -13Q316 -13 275 11T216 84L0 700H202L358 179Q360 175 362 172T368 169Q372 169 375 172T379 179L535 700H736L521 85Q503 36 462 12T368 -13Z" />
<glyph unicode="W" horiz-adv-x="1060" d="M335 -13Q252 -13 187 21T85 119T47 269V700H234V266Q234 233 246 208T281 167T335 152Q366 152 389 167T424 207T436 266V700H625V266Q625 233 637 208T672 167T726 152Q757 152 779 167T814 207T827 266V700H1013V269Q1013
182 976 119T875 22T726 -13Q686 -13 650 -4T584 22T530 63Q506 40 476 23T411 -4T335 -13Z" />
<glyph unicode="X" horiz-adv-x="706" d="M27 0L210 300Q163 321 129 355T76 434T58 536V700H249V526Q249 504 257 486T281 456T315 440L470 700H683L502 407Q556 390 595 356T655 273T676 164V0H485V173Q485 210 462 237T400 268L240 0H27Z" />
<glyph unicode="Y" horiz-adv-x="699" d="M253 0V188Q191 205 146 242T75 337T50 467V700H237V459Q237 424 250 397T289 353T349 337Q385 337 410 353T449 396T463 459V700H650V467Q650 395 625 338T554 243T445 188V0H253Z" />
<glyph unicode="Z" horiz-adv-x="613" d="M196 0Q121 0 75 44T28 159Q28 191 41 221T86 279L366 528Q368 530 369 532T370 537Q370 540 369 542T365 545T357 547H43V700H412Q462 700 500 680T559 624T580 541Q580 510 567 480T524 423L241 172Q240 171 239 170T237
167T236 163Q236 160 238 158T243 154T251 152H585V0H196Z" />
<glyph unicode="[" horiz-adv-x="344" d="M53 -180V730H324V587H210V-36H324V-180H53Z" />
<glyph unicode="\" horiz-adv-x="377" d="M266 -100L-16 730H126L408 -100H266Z" />
<glyph unicode="]" horiz-adv-x="344" d="M20 -180V-36H134V587H20V730H292V-180H20Z" />
<glyph unicode="^" horiz-adv-x="570" d="M49 365L216 730H355L523 365H375L285 571L195 365H49Z" />
<glyph unicode="_" horiz-adv-x="500" d="M0 -118V-12H500V-118H0Z" />
<glyph unicode="`" horiz-adv-x="224" d="M82 757L-8 889H137L227 757H82Z" />
<glyph unicode="a" horiz-adv-x="645" d="M262 -13Q195 -13 143 21T62 114T32 250Q32 330 67 393T167 491T318 527Q403 527 464 492T560 396T594 256V0H427V80H423Q409 53 387 32T335 -1T262 -13ZM314 138Q346 138 369 153T405 196T418 257Q418 291 405 316T369
357T314 373Q283 373 260 358T223 317T210 257Q210 223 223 196T259 154T314 138Z" />
<glyph unicode="b" horiz-adv-x="642" d="M328 -13Q244 -13 181 22T82 119T47 267V730H221V467H225Q241 487 262 500T309 520T363 527Q434 527 490 494T577 403T609 266Q609 204 590 154T534 66T445 8T328 -13ZM328 138Q360 138 383 153T419 196T432 257Q432 290
420 316T384 357T328 373Q298 373 274 358T237 316T224 257Q224 223 237 196T274 154T328 138Z" />
<glyph unicode="c" horiz-adv-x="427" d="M310 0Q230 0 167 33T68 124T32 257Q32 332 68 390T167 482T310 515H399V371H321Q286 371 260 356T220 315T206 257Q206 225 220 199T260 157T321 142H399V0H310Z" />
<glyph unicode="d" horiz-adv-x="642" d="M314 -13Q249 -13 198 7T109 65T53 153T33 266Q33 344 65 402T152 494T279 527Q308 527 333 521T380 501T417 467H421V730H595V267Q595 182 560 120T462 22T314 -13ZM314 138Q346 138 369 153T405 196T418 257Q418 290
405 316T369 357T314 373Q283 373 260 358T223 316T210 257Q210 223 223 196T259 154T314 138Z" />
<glyph unicode="e" horiz-adv-x="577" d="M329 0Q242 0 176 31T71 120T32 257Q32 345 69 405T167 496T298 527Q374 527 429 496T515 407T546 274Q546 258 545 238T539 203H212Q218 181 231 167T267 145T319 138H489V0H329ZM206 304H382Q382 319 378 331T367 355T350
374T326 386T296 390Q275 390 259 383T232 365T215 338T206 304Z" />
<glyph unicode="f" horiz-adv-x="432" d="M94 0V379H13V515H94V575Q94 647 135 688T251 730H417V592H294Q283 592 275 585T267 566V515H394V379H267V0H94Z" />
<glyph unicode="g" horiz-adv-x="638" d="M129 -203V-55H380Q397 -55 407 -46T417 -21V81H413Q397 61 376 46T328 22T263 13Q195 13 143 45T62 134T32 260Q32 332 64 393T158 490T309 527Q394 527 457 492T555 395T591 248V-48Q591 -120 549 -161T431 -203H129ZM312
154Q342 154 365 168T401 207T414 260Q414 292 401 317T365 357T312 372Q282 372 259 358T222 318T209 262Q209 232 222 208T258 169T312 154Z" />
<glyph unicode="h" horiz-adv-x="621" d="M50 0V730H223V484Q253 506 288 516T357 527Q425 527 472 498T546 417T572 296V0H398V285Q398 312 386 332T354 363T311 374Q288 374 268 364T236 333T223 287V0H50Z" />
<glyph unicode="i" horiz-adv-x="274" d="M50 0V515H224V0H50ZM137 571Q97 571 69 600T40 668Q40 708 68 736T137 765Q177 765 205 737T234 668Q234 629 206 600T137 571Z" />
<glyph unicode="j" horiz-adv-x="276" d="M-88 -203V-55H17Q33 -55 43 -46T53 -21V515H226V-48Q226 -120 185 -161T70 -203H-88ZM140 571Q100 571 72 600T43 668Q43 708 71 736T140 765Q180 765 208 737T237 668Q237 629 209 600T140 571Z" />
<glyph unicode="k" horiz-adv-x="606" d="M50 0V730H223V323H279L390 515H585L450 304Q506 280 536 234T566 118V0H393V118Q393 143 382 162T351 192T307 203H223V0H50Z" />
<glyph unicode="l" horiz-adv-x="274" d="M50 0V730H223V0H50Z" />
<glyph unicode="m" horiz-adv-x="947" d="M50 0V302Q50 369 80 419T166 498T297 527Q335 527 367 520T426 498T472 466H474Q494 484 520 498T578 519T649 527Q726 527 781 499T867 420T897 302V0H724L723 294Q723 316 713 334T685 363T642 374Q618 374 600 363T571
334T560 294V0H387V294Q387 316 377 334T348 363T304 374Q281 374 263 363T234 334T223 294V0H50Z" />
<glyph unicode="n" horiz-adv-x="621" d="M50 0V296Q50 362 82 414T174 497T314 527Q394 527 452 497T541 415T572 296V0H398V288Q398 311 387 330T357 362T311 374Q286 374 266 362T234 331T223 288V0H50Z" />
<glyph unicode="o" horiz-adv-x="626" d="M313 -12Q235 -12 172 22T70 118T32 258Q32 336 70 397T172 492T314 527Q392 527 455 493T556 397T594 258Q594 179 557 118T456 23T313 -12ZM313 142Q345 142 369 157T407 198T420 258Q420 292 407 318T370 359T313 374Q281
374 257 359T220 318T206 258Q206 225 219 199T257 157T313 142Z" />
<glyph unicode="p" horiz-adv-x="642" d="M328 528Q393 528 445 508T533 451T589 362T609 250Q609 172 578 113T490 21T363 -12Q335 -12 309 -5T262 15T225 48H221V-215H47V248Q47 333 82 396T180 493T328 528ZM328 377Q298 377 274 362T237 320T224 258Q224 226
237 200T274 158T328 142Q360 142 383 157T419 199T432 258Q432 293 420 319T384 361T328 377Z" />
<glyph unicode="q" horiz-adv-x="626" d="M227 -203V23H400V-203H227ZM313 -12Q235 -12 172 22T70 118T32 258Q32 336 70 397T172 492T314 527Q392 527 455 493T556 397T594 258Q594 179 557 118T456 23T313 -12ZM313 142Q345 142 369 157T407 198T420 258Q420
292 407 318T370 359T313 374Q281 374 257 359T220 318T206 258Q206 225 219 199T257 157T313 142Z" />
<glyph unicode="r" horiz-adv-x="375" d="M47 0V360Q47 432 88 473T204 515H362V379H257Q241 379 231 369T221 343V0H47Z" />
<glyph unicode="s" horiz-adv-x="526" d="M51 0V130H295Q305 130 311 134T321 144T325 159Q325 167 322 173T312 184T295 188H211Q161 188 120 204T55 257T30 352Q30 397 52 434T113 493T197 515H452V386H231Q220 386 212 378T203 358Q203 347 211 339T231 331H311Q368
331 410 314T474 260T497 165Q497 120 474 83T413 23T326 0H51Z" />
<glyph unicode="t" horiz-adv-x="442" d="M250 0Q177 0 136 41T94 155V638H267V168Q267 157 275 150T294 142H406V0H250ZM13 379V515H406V379H13Z" />
<glyph unicode="u" horiz-adv-x="621" d="M314 -13Q234 -13 175 18T83 101T50 219V515H223V227Q223 205 234 185T265 153T311 141Q337 141 356 153T387 185T398 227V515H572V219Q572 153 541 101T452 18T314 -13Z" />
<glyph unicode="v" horiz-adv-x="592" d="M296 -13Q248 -13 210 11T155 78L10 515H200L290 163Q291 159 293 157T298 154Q300 154 302 156T306 163L395 515H582L437 79Q421 36 383 12T296 -13Z" />
<glyph unicode="w" horiz-adv-x="1013" d="M260 -13Q205 -13 157 9T80 74T50 184V515H223V166Q223 155 228 147T242 133T260 128Q270 128 278 133T291 146T296 166V330Q296 394 325 438T401 504T506 527Q564 527 611 505T688 438T717 330V166Q717 155 722 147T735
133T753 128Q764 128 772 133T785 146T790 166V515H964V184Q964 118 935 75T857 9T753 -13Q699 -13 651 9T573 74T543 184V349Q543 361 538 369T525 382T506 387Q497 387 489 382T475 369T470 349V184Q470 118 440 75T363 9T260 -13Z" />
<glyph unicode="x" horiz-adv-x="609" d="M9 0L168 224Q127 246 99 275T57 341T42 420V515H215V437Q215 415 223 397T245 367T275 348L382 515H582L433 300Q478 280 508 250T554 180T570 96V0H397V86Q397 110 387 129T359 161T322 176L209 0H9Z" />
<glyph unicode="y" horiz-adv-x="621" d="M224 -203V0Q170 14 131 46T71 122T50 219V515H223V228Q223 205 234 186T265 154T311 141Q337 141 356 153T386 185T397 228V515H571V219Q571 167 551 122T492 45T398 -1V-203H224Z" />
<glyph unicode="z" horiz-adv-x="504" d="M181 0Q131 0 97 19T47 69T30 136Q30 173 48 200T99 249L258 350Q264 354 266 358T268 365Q268 370 264 373T252 376H49V515H322Q366 515 399 496T450 446T468 377Q468 344 452 314T406 265L247 164Q242 161 240 158T237
151Q237 147 241 144T254 140H458V0H181Z" />
<glyph unicode="{" horiz-adv-x="386" d="M248 -180Q176 -180 135 -140T93 -28V183Q93 189 91 194T84 202T73 205H20V349H73Q82 349 87 356T93 372V579Q93 650 134 690T248 730H366V586H278Q267 586 260 579T252 561V386Q252 362 247 343T230 307T197 277Q218
264 229 248T246 211T252 164V-11Q252 -22 259 -29T278 -36H366V-180H248Z" />
<glyph unicode="|" horiz-adv-x="258" d="M53 -180V730H206V-180H53Z" />
<glyph unicode="}" horiz-adv-x="386" d="M20 -180V-36H108Q119 -36 126 -29T133 -11V164Q133 191 138 211T156 247T188 277Q168 291 156 307T139 342T133 386V561Q133 572 126 579T108 586H20V730H137Q210 730 251 690T292 579V372Q292 363 298 356T313 349H366V205H313Q307
205 302 202T295 194T292 183V-28Q292 -99 251 -139T137 -180H20Z" />
<glyph unicode="~" d="M393 253Q363 253 337 262T288 282T245 303T205 312Q184 312 161 299T106 255L25 353Q77 405 120 429T205 453Q236 453 262 445T311 424T354 404T393 395Q409 395 423 401T455 420T492 453L574 354Q522 301 480 277T393 253Z" />
<glyph unicode="&#xa0;" horiz-adv-x="265" />
<glyph unicode="&#xa1;" horiz-adv-x="287" d="M62 -190V268H228V-190H62ZM146 523Q174 523 196 509T232 473T246 422Q246 381 217 352T146 322Q104 322 75 351T46 422Q46 463 75 493T146 523Z" />
<glyph unicode="&#xa2;" horiz-adv-x="409" d="M197 -119V53L315 15V-119H197ZM197 460V629H315V495L197 460ZM310 0Q230 0 167 33T68 124T32 257Q32 332 68 390T167 482T310 515H399V371H321Q286 371 260 356T220 315T206 257Q206 225 220 199T260 157T321 142H399V0H310Z"
/>
<glyph unicode="&#xa3;" d="M43 0V161H135V482Q135 542 162 591T238 670T353 700H529V539H361Q343 539 330 526T316 494V161H564V0H43ZM43 301V431H458V301H43Z" />
<glyph unicode="&#xa4;" horiz-adv-x="702" d="M144 7L40 111L120 192Q103 221 94 253T85 320Q85 355 94 386T118 445L40 524L144 628L222 549Q250 565 282 572T349 580Q383 580 416 572T477 547L558 627L662 524L581 442Q611 387 611 320Q611 285 603 254T578
194L663 111L558 7L472 92Q445 77 414 69T349 60Q282 60 227 90L144 7ZM349 199Q382 199 409 215T452 259T468 320Q468 354 452 382T409 426T349 443Q316 443 289 427T245 382T229 320Q229 289 244 262T287 217T349 199Z" />
<glyph unicode="&#xa5;" horiz-adv-x="752" d="M280 0V115H32V212H280V254Q268 256 258 258T237 264H32V361H123Q101 394 89 434T77 521V700H263V523Q263 486 277 459T318 416T376 400Q409 400 434 415T475 458T490 523V700H676V521Q676 474 664 434T630 361H719V264H514Q504
261 494 258T471 253V212H719V115H471V0H280Z" />
<glyph unicode="&#xa6;" horiz-adv-x="258" d="M53 331V730H206V331H53ZM53 -180V219H206V-180H53Z" />
<glyph unicode="&#xa7;" horiz-adv-x="637" d="M133 -157V-21H349Q365 -21 376 -14T394 6T400 35Q400 50 394 61T377 80T349 87H225Q166 87 125 112T62 180T40 273Q40 303 49 329T76 377T122 416Q101 437 91 464T80 520Q80 571 102 611T165 676T265 700H504V564H288Q273
564 261 557T243 537T236 507Q236 493 242 481T261 462T288 455H413Q471 455 512 430T575 363T597 270Q597 241 588 215T561 166T516 125Q536 105 546 80T556 23Q556 -25 535 -66T472 -132T372 -157H133ZM241 224H395Q408 224 418 230T435 247T441 272Q441 285
435 295T419 312T395 318H241Q229 318 219 312T202 296T196 272Q196 258 202 247T218 230T241 224Z" />
<glyph unicode="&#xa8;" horiz-adv-x="389" d="M300 738Q268 738 244 761T220 818Q220 851 244 875T300 899Q333 899 356 875T380 818Q380 785 357 762T300 738ZM87 738Q55 738 31 761T7 818Q7 851 31 875T87 899Q120 899 143 875T167 818Q167 785 144 762T87 738Z" />
<glyph unicode="&#xa9;" horiz-adv-x="814" d="M408 -19Q331 -19 265 10T147 89T67 206T38 350Q38 427 67 493T147 610T264 689T408 718Q485 718 552 690T671 610T751 493T780 350Q780 273 751 207T671 90T553 10T408 -19ZM408 72Q466 72 516 93T603 153T662 241T683
350Q683 408 662 458T604 547T516 606T409 627Q351 627 301 606T213 547T154 459T133 350Q133 292 154 242T213 153T301 94T408 72ZM428 163Q368 164 325 189T258 257T235 350Q235 401 258 442T324 509T429 536H493V433H430Q407 433 388 423T358 394T346 350Q346
325 357 307T388 278T430 267H493V163H428Z" />
<glyph unicode="&#xaa;" horiz-adv-x="412" d="M175 382Q131 382 101 402T54 459T38 544Q38 595 57 632T115 691T205 713Q261 713 298 691T353 631T372 548V388H273V448H269Q259 423 238 403T175 382ZM205 475Q233 475 249 496T265 548Q265 578 249 599T205 620Q177
620 161 599T145 548Q145 517 161 496T205 475Z" />
<glyph unicode="&#xab;" horiz-adv-x="580" d="M404 119L261 317L404 515H551L412 317L551 119H404ZM169 119L26 317L169 515H316L177 317L316 119H169Z" />
<glyph unicode="&#xac;" horiz-adv-x="564" d="M384 86V195H37V333H526V86H384Z" />
<glyph unicode="&#xad;" horiz-adv-x="363" d="M40 194V319H323V194H40Z" />
<glyph unicode="&#xae;" horiz-adv-x="814" d="M408 -19Q331 -19 265 10T147 89T67 206T38 350Q38 427 67 493T147 610T264 689T408 718Q485 718 552 690T671 610T751 493T780 350Q780 273 751 207T671 90T553 10T408 -19ZM408 72Q466 72 516 93T603 153T662 241T683
350Q683 408 662 458T604 547T516 606T409 627Q351 627 301 606T213 547T154 459T133 350Q133 292 154 242T213 153T301 94T408 72ZM263 165V534H432Q470 534 500 518T550 472T569 404Q569 370 553 343T511 297L535 258Q537 256 540 254T547 251H583V165H524Q499
165 480 177T450 207L413 270H369V165H263ZM369 361H424Q441 361 452 372T463 404Q463 422 452 431T424 441H369V361Z" />
<glyph unicode="&#xaf;" horiz-adv-x="340" d="M15 580V681H325V580H15Z" />
<glyph unicode="&#xb0;" horiz-adv-x="418" d="M209 376Q161 376 122 398T60 458T37 544Q37 591 60 629T122 690T209 713Q258 713 296 691T358 630T381 544Q381 496 358 458T297 398T209 376ZM209 479Q227 479 240 487T261 511T269 544Q269 562 262 577T241 600T209
609Q192 609 178 601T156 577T148 544Q148 526 156 511T178 488T209 479Z" />
<glyph unicode="&#xb1;" horiz-adv-x="572" d="M210 207V364H43V497H210V653H361V497H529V364H361V207H210ZM43 0V139H529V0H43Z" />
<glyph unicode="&#xb2;" horiz-adv-x="424" d="M140 245Q110 245 88 259T54 295T41 343Q41 366 51 387T82 423L229 525Q241 532 246 541T252 560Q252 576 240 586T209 596H57V699H228Q272 699 305 681T358 631T377 562Q377 527 362 498T315 449L189 369Q184 366
184 360Q184 356 187 353T197 350H387V245H140Z" />
<glyph unicode="&#xb3;" horiz-adv-x="424" d="M43 245V350H217Q235 350 246 360T257 387Q257 403 246 414T217 425H63V523H218Q235 523 245 533T256 560Q256 575 246 585T218 596H43V699H231Q274 699 308 681T363 632T384 563Q384 538 373 516T336 474Q361 456
372 434T384 385Q384 347 364 315T308 264T229 245H43Z" />
<glyph unicode="&#xb4;" horiz-adv-x="226" d="M2 775L92 907H237L147 775H2Z" />
<glyph unicode="&#xb5;" horiz-adv-x="614" d="M50 -203V515H223V229Q223 207 234 188T263 157T307 146Q332 146 350 157T380 187T391 229V515H564V218Q564 153 535 101T451 18T324 -13Q304 -13 286 -10T252 -2T223 13V-203H50Z" />
<glyph unicode="&#xb6;" horiz-adv-x="662" d="M265 -203V192Q190 198 139 236T62 331T36 452Q36 516 65 573T153 665T303 700H615V584H556V-203H435V584H384V-203H265Z" />
<glyph unicode="&#xb7;" horiz-adv-x="266" d="M133 178Q92 178 63 207T33 277Q33 319 62 348T133 378Q174 378 203 349T233 277Q233 237 204 208T133 178Z" />
<glyph unicode="&#xb8;" horiz-adv-x="214" d="M-21 -203L78 32H229L130 -203H-21Z" />
<glyph unicode="&#xb9;" horiz-adv-x="364" d="M35 246V350H125V596H43V700H249V350H330V246H35Z" />
<glyph unicode="&#xba;" horiz-adv-x="429" d="M215 382Q169 382 130 401T67 457T43 544Q43 587 63 623T123 683T214 706H420V613H363Q375 596 380 577T386 536Q386 489 363 455T301 401T215 382ZM214 470Q245 470 261 492T278 542Q278 572 262 593T214 615Q184
615 168 594T151 542Q151 514 167 492T214 470Z" />
<glyph unicode="&#xbb;" horiz-adv-x="580" d="M264 119L403 317L264 515H412L555 317L412 119H264ZM27 119L166 317L27 515H175L318 317L175 119H27Z" />
<glyph unicode="&#xbc;" horiz-adv-x="1052" d="M828 0V92H688Q644 92 615 118T586 184Q586 198 590 211T600 237L718 454H850L717 213Q714 207 714 203Q714 201 717 199T723 197H828V330H941V197H1006V92H941V0H828ZM43 246V350H132V596H50V700H257V350H337V246H43ZM227
0L665 700H792L354 0H227Z" />
<glyph unicode="&#xbd;" horiz-adv-x="1062" d="M42 246V350H132V596H50V700H256V350H337V246H42ZM226 0L664 700H791L353 0H226ZM772 -2Q742 -2 720 12T686 48T673 96Q673 119 683 140T714 176L861 278Q873 285 878 294T884 313Q884 329 872 339T841 349H689V452H860Q904
452 937 434T990 384T1009 315Q1009 280 994 251T947 202L821 122Q816 119 816 113Q816 109 819 106T829 103H1019V-2H772Z" />
<glyph unicode="&#xbe;" horiz-adv-x="1067" d="M848 0V92H708Q664 92 635 118T606 184Q606 198 610 211T621 237L738 454H870L738 213Q735 209 735 203Q735 201 737 199T743 197H848V330H962V197H1027V92H962V0H848ZM43 245V350H217Q235 350 246 360T257 387Q257
403 246 414T217 425H63V523H218Q235 523 245 533T256 560Q256 575 246 585T218 596H43V699H231Q274 699 308 681T363 632T384 563Q384 538 373 516T336 474Q361 456 372 434T384 385Q384 347 364 315T308 264T229 245H43ZM240 0L678 700H805L367 0H240Z" />
<glyph unicode="&#xbf;" horiz-adv-x="391" d="M278 -190Q204 -190 146 -160T55 -76T21 47Q21 115 54 167T149 248T292 277V146Q259 146 235 133T198 97T185 47Q185 19 198 -4T235 -40T291 -54H346V-190H278ZM258 523Q299 523 328 493T358 422Q358 381 329 352T258
322Q217 322 188 351T158 422Q158 450 171 472T208 509T258 523Z" />
<glyph unicode="&#xc0;" horiz-adv-x="756" d="M0 0L225 615Q244 664 285 688T378 713Q430 713 471 689T531 616L756 0H551L510 128H242L199 0H0ZM287 280H466L389 533Q388 537 385 539T378 541Q375 541 373 539T368 533L287 280ZM306 757L216 889H361L451 757H306Z" />
<glyph unicode="&#xc1;" horiz-adv-x="756" d="M0 0L225 615Q244 664 285 688T378 713Q430 713 471 689T531 616L756 0H551L510 128H242L199 0H0ZM287 280H466L389 533Q388 537 385 539T378 541Q375 541 373 539T368 533L287 280ZM299 775L389 907H534L444 775H299Z" />
<glyph unicode="&#xc2;" horiz-adv-x="756" d="M0 0L225 615Q244 664 285 688T378 713Q430 713 471 689T531 616L756 0H551L510 128H242L199 0H0ZM287 280H466L389 533Q388 537 385 539T378 541Q375 541 373 539T368 533L287 280ZM208 757L299 889H456L547 757H419L377
822L336 757H208Z" />
<glyph unicode="&#xc3;" horiz-adv-x="756" d="M0 0L225 615Q244 664 285 688T378 713Q430 713 471 689T531 616L756 0H551L510 128H242L199 0H0ZM287 280H466L389 533Q388 537 385 539T378 541Q375 541 373 539T368 533L287 280ZM440 744Q414 744 396 749T365
764T336 783Q328 789 321 794T306 799Q300 799 296 796T291 785V755H200V783Q200 836 232 864T310 893Q344 893 367 881T410 854Q419 849 427 843T443 837Q449 837 454 841T459 854V883H550V854Q550 801 518 773T440 744Z" />
<glyph unicode="&#xc4;" horiz-adv-x="756" d="M485 738Q453 738 430 761T406 818Q406 851 429 875T485 899Q518 899 542 875T566 818Q566 785 542 762T485 738ZM272 738Q240 738 217 761T193 818Q193 851 216 875T272 899Q305 899 329 875T353 818Q353 785 329
762T272 738ZM0 0L225 615Q244 664 285 688T378 713Q430 713 471 689T531 616L756 0H551L510 128H242L199 0H0ZM287 280H466L389 533Q388 537 385 539T378 541Q375 541 373 539T368 533L287 280Z" />
<glyph unicode="&#xc5;" horiz-adv-x="764" d="M0 0L225 615Q244 664 285 688T378 713Q430 713 471 689T531 616L756 0H551L510 128H242L199 0H0ZM287 280H466L389 533Q388 537 385 539T378 541Q375 541 373 539T368 533L287 280ZM376 739Q331 739 299 768T267
843Q267 888 299 917T377 947Q422 947 454 918T486 843Q486 797 455 768T376 739ZM377 803Q391 803 401 814T411 843Q411 861 401 872T377 883Q362 883 352 872T342 843Q342 825 352 814T377 803Z" />
<glyph unicode="&#xc6;" horiz-adv-x="991" d="M0 0L225 615Q244 664 285 688T378 713Q417 713 449 699T507 654L509 650Q523 667 541 678T582 694T630 700H963V547H641Q617 547 603 534T585 500T589 456L599 429H930V278H655L677 219Q687 189 703 172T745 155H963V0H699Q635
0 588 31T521 111L514 134H240L193 0H0ZM283 286H470L389 532Q387 537 385 539T378 542Q376 542 374 539T369 532L283 286Z" />
<glyph unicode="&#xc7;" horiz-adv-x="538" d="M412 0Q322 1 251 27T130 100T54 210T27 350Q27 426 53 489T130 600T251 673T412 700H519V545H418Q371 545 335 530T273 489T235 427T222 350Q222 309 235 274T273 212T334 170T418 155H519V0H412ZM204 -203L303
32H454L355 -203H204Z" />
<glyph unicode="&#xc8;" horiz-adv-x="588" d="M247 0Q188 0 139 26T62 99T33 205Q33 250 53 290T109 358Q77 385 58 422T38 500Q38 558 66 603T142 674T247 700H551V545H285Q267 545 253 538T230 518T221 487Q221 470 229 458T252 438T285 430H516V276H287Q268
276 253 269T230 247T221 215Q221 197 229 184T253 163T287 155H551V0H247ZM273 757L183 889H328L418 757H273Z" />
<glyph unicode="&#xc9;" horiz-adv-x="588" d="M247 0Q188 0 139 26T62 99T33 205Q33 250 53 290T109 358Q77 385 58 422T38 500Q38 558 66 603T142 674T247 700H551V545H285Q267 545 253 538T230 518T221 487Q221 470 229 458T252 438T285 430H516V276H287Q268
276 253 269T230 247T221 215Q221 197 229 184T253 163T287 155H551V0H247ZM241 775L331 907H476L386 775H241Z" />
<glyph unicode="&#xca;" horiz-adv-x="588" d="M247 0Q188 0 139 26T62 99T33 205Q33 250 53 290T109 358Q77 385 58 422T38 500Q38 558 66 603T142 674T247 700H551V545H285Q267 545 253 538T230 518T221 487Q221 470 229 458T252 438T285 430H516V276H287Q268
276 253 269T230 247T221 215Q221 197 229 184T253 163T287 155H551V0H247ZM157 757L248 889H405L496 757H368L326 822L285 757H157Z" />
<glyph unicode="&#xcb;" horiz-adv-x="588" d="M445 738Q412 738 389 761T365 818Q365 851 388 875T445 899Q478 899 501 875T525 818Q525 785 502 762T445 738ZM232 738Q199 738 176 761T152 818Q152 851 175 875T232 899Q265 899 288 875T312 818Q312 785 289
762T232 738ZM247 0Q188 0 139 26T62 99T33 205Q33 250 53 290T109 358Q77 385 58 422T38 500Q38 558 66 603T142 674T247 700H551V545H285Q267 545 253 538T230 518T221 487Q221 470 229 458T252 438T285 430H516V276H287Q268 276 253 269T230 247T221 215Q221
197 229 184T253 163T287 155H551V0H247Z" />
<glyph unicode="&#xcc;" horiz-adv-x="499" d="M39 0V155H153V545H39V700H460V545H345V155H460V0H39ZM192 757L102 889H247L337 757H192Z" />
<glyph unicode="&#xcd;" horiz-adv-x="499" d="M39 0V155H153V545H39V700H460V545H345V155H460V0H39ZM170 776L260 908H405L315 776H170Z" />
<glyph unicode="&#xce;" horiz-adv-x="499" d="M39 0V155H153V545H39V700H460V545H345V155H460V0H39ZM82 757L173 889H330L421 757H293L251 822L210 757H82Z" />
<glyph unicode="&#xcf;" horiz-adv-x="499" d="M357 738Q324 738 301 761T277 818Q277 851 300 875T357 899Q390 899 413 875T437 818Q437 785 414 762T357 738ZM144 738Q111 738 88 761T64 818Q64 851 87 875T144 899Q177 899 200 875T224 818Q224 785 201 762T144
738ZM39 0V155H153V545H39V700H460V545H345V155H460V0H39Z" />
<glyph unicode="&#xd0;" horiz-adv-x="719" d="M52 0V290H-3V415H52V700H329Q439 700 520 655T647 531T692 350Q692 248 647 169T521 45T329 0H52ZM244 155H321Q372 155 412 178T476 245T499 350Q499 411 476 454T413 521T321 545H244V415H339V290H244V155Z" />
<glyph unicode="&#xd1;" horiz-adv-x="848" d="M565 -13Q502 -13 449 14T363 91T331 209V497Q331 512 325 523T307 541T282 547Q268 547 257 541T239 524T232 497V0H47V490Q47 558 79 608T164 685T282 713Q346 713 399 686T484 608T516 490V202Q516 187 523 176T541
158T565 151Q578 151 589 157T608 175T615 202V700H800V209Q800 141 768 92T683 15T565 -13ZM497 744Q471 744 453 749T422 764T393 783Q385 789 378 794T363 799Q357 799 353 796T348 785V755H257V783Q257 836 289 864T367 893Q401 893 424 881T467 854Q476 849
484 843T500 837Q506 837 511 841T516 854V883H607V854Q607 801 575 773T497 744Z" />
<glyph unicode="&#xd2;" horiz-adv-x="805" d="M402 -13Q319 -13 250 14T132 91T55 207T27 350Q27 427 54 493T131 609T250 685T402 713Q486 713 554 686T673 609T750 494T777 350Q777 273 750 207T673 92T555 15T402 -13ZM402 145Q443 145 476 160T534 204T571
270T584 350Q584 393 572 430T535 496T477 539T402 555Q362 555 328 540T270 496T233 431T220 350Q220 307 233 270T270 205T328 161T402 145ZM342 757L252 889H397L487 757H342Z" />
<glyph unicode="&#xd3;" horiz-adv-x="805" d="M402 -13Q319 -13 250 14T132 91T55 207T27 350Q27 427 54 493T131 609T250 685T402 713Q486 713 554 686T673 609T750 494T777 350Q777 273 750 207T673 92T555 15T402 -13ZM402 145Q443 145 476 160T534 204T571
270T584 350Q584 393 572 430T535 496T477 539T402 555Q362 555 328 540T270 496T233 431T220 350Q220 307 233 270T270 205T328 161T402 145ZM333 775L423 907H568L478 775H333Z" />
<glyph unicode="&#xd4;" horiz-adv-x="805" d="M402 -13Q319 -13 250 14T132 91T55 207T27 350Q27 427 54 493T131 609T250 685T402 713Q486 713 554 686T673 609T750 494T777 350Q777 273 750 207T673 92T555 15T402 -13ZM402 145Q443 145 476 160T534 204T571
270T584 350Q584 393 572 430T535 496T477 539T402 555Q362 555 328 540T270 496T233 431T220 350Q220 307 233 270T270 205T328 161T402 145ZM232 757L323 889H480L571 757H443L401 822L360 757H232Z" />
<glyph unicode="&#xd5;" horiz-adv-x="805" d="M402 -13Q319 -13 250 14T132 91T55 207T27 350Q27 427 54 493T131 609T250 685T402 713Q486 713 554 686T673 609T750 494T777 350Q777 273 750 207T673 92T555 15T402 -13ZM402 145Q443 145 476 160T534 204T571
270T584 350Q584 393 572 430T535 496T477 539T402 555Q362 555 328 540T270 496T233 431T220 350Q220 307 233 270T270 205T328 161T402 145ZM464 744Q438 744 420 749T389 764T360 783Q352 789 345 794T330 799Q324 799 320 796T315 785V755H224V783Q224 836
256 864T334 893Q368 893 391 881T434 854Q443 849 451 843T467 837Q473 837 478 841T483 854V883H574V854Q574 801 542 773T464 744Z" />
<glyph unicode="&#xd6;" horiz-adv-x="805" d="M508 738Q476 738 453 761T429 818Q429 851 452 875T508 899Q541 899 565 875T589 818Q589 785 565 762T508 738ZM295 738Q263 738 240 761T216 818Q216 851 239 875T295 899Q328 899 352 875T376 818Q376 785 352
762T295 738ZM402 -13Q319 -13 250 14T132 91T55 207T27 350Q27 427 54 493T131 609T250 685T402 713Q486 713 554 686T673 609T750 494T777 350Q777 273 750 207T673 92T555 15T402 -13ZM402 145Q443 145 476 160T534 204T571 270T584 350Q584 393 572 430T535
496T477 539T402 555Q362 555 328 540T270 496T233 431T220 350Q220 307 233 270T270 205T328 161T402 145Z" />
<glyph unicode="&#xd7;" horiz-adv-x="547" d="M151 126L49 226L173 350L53 471L151 574L273 451L395 574L496 473L373 349L496 226L395 126L273 249L151 126Z" />
<glyph unicode="&#xd8;" horiz-adv-x="805" d="M402 -13Q347 -13 297 1T203 40L169 0H17L114 113Q73 161 50 221T27 350Q27 427 54 493T131 608T250 685T402 713Q456 713 504 700T594 664L626 700H780L685 591Q729 544 753 482T777 350Q777 273 750 207T673 92T555
15T402 -13ZM402 145Q443 145 476 160T534 204T571 269T584 350Q584 378 578 403T560 451L314 168Q334 157 356 151T402 145ZM243 256L483 535Q465 545 445 550T402 555Q362 555 328 540T270 496T233 431T220 350Q220 324 226 301T243 256Z" />
<glyph unicode="&#xd9;" horiz-adv-x="712" d="M356 -12Q266 -12 197 23T89 124T50 279V700H239V270Q239 235 253 207T294 162T356 145Q391 145 417 161T457 206T471 270V700H660V279Q660 190 621 125T514 24T356 -12ZM304 757L214 889H359L449 757H304Z" />
<glyph unicode="&#xda;" horiz-adv-x="712" d="M356 -12Q266 -12 197 23T89 124T50 279V700H239V270Q239 235 253 207T294 162T356 145Q391 145 417 161T457 206T471 270V700H660V279Q660 190 621 125T514 24T356 -12ZM279 775L369 907H514L424 775H279Z" />
<glyph unicode="&#xdb;" horiz-adv-x="712" d="M356 -12Q266 -12 197 23T89 124T50 279V700H239V270Q239 235 253 207T294 162T356 145Q391 145 417 161T457 206T471 270V700H660V279Q660 190 621 125T514 24T356 -12ZM185 757L276 889H433L524 757H396L354 822L313
757H185Z" />
<glyph unicode="&#xdc;" horiz-adv-x="712" d="M463 738Q431 738 408 761T384 818Q384 851 407 875T463 899Q496 899 520 875T544 818Q544 785 520 762T463 738ZM250 738Q218 738 195 761T171 818Q171 851 194 875T250 899Q283 899 307 875T331 818Q331 785 307
762T250 738ZM355 -12Q266 -12 198 23T90 124T50 279V700H239V270Q239 235 253 207T294 162T355 145Q391 145 417 161T457 206T471 270V700H660V279Q660 190 621 125T514 24T355 -12Z" />
<glyph unicode="&#xdd;" horiz-adv-x="712" d="M253 0V188Q191 205 146 242T75 337T50 467V700H237V459Q237 424 250 397T289 353T349 337Q385 337 410 353T449 396T463 459V700H650V467Q650 395 625 338T554 243T445 188V0H253ZM273 775L363 907H508L418 775H273Z" />
<glyph unicode="&#xde;" horiz-adv-x="650" d="M53 0V700H244V604H360Q434 604 494 572T589 483T625 351Q625 277 590 220T494 130T360 98H244V0H53ZM244 249H340Q365 249 386 261T419 296T432 351Q432 383 420 405T386 440T340 453H244V249Z" />
<glyph unicode="&#xdf;" horiz-adv-x="627" d="M47 0V491Q47 548 69 594T130 674T220 724T328 742Q397 742 456 717T551 644T587 530Q587 503 579 478T556 431T519 390Q546 369 565 342T595 286T606 223Q606 162 575 111T492 30T375 0H273V146H350Q373 146 391
157T419 186T430 227Q430 250 420 268T391 297T350 308H289V449H334Q359 449 375 458T401 485T410 523Q410 547 399 563T368 588T324 597Q297 597 274 585T236 547T221 482V0H47Z" />
<glyph unicode="&#xe0;" horiz-adv-x="635" d="M262 -13Q195 -13 143 21T62 114T32 250Q32 330 67 393T167 491T318 527Q403 527 464 492T560 396T594 256V0H427V80H423Q409 53 387 32T335 -1T262 -13ZM314 138Q346 138 369 153T405 196T418 257Q418 291 405 316T369
357T314 373Q283 373 260 358T223 317T210 257Q210 223 223 196T259 154T314 138ZM260 577L170 709H315L405 577H260Z" />
<glyph unicode="&#xe1;" horiz-adv-x="635" d="M262 -13Q195 -13 143 21T62 114T32 250Q32 330 67 393T167 491T318 527Q403 527 464 492T560 396T594 256V0H427V80H423Q409 53 387 32T335 -1T262 -13ZM314 138Q346 138 369 153T405 196T418 257Q418 291 405 316T369
357T314 373Q283 373 260 358T223 317T210 257Q210 223 223 196T259 154T314 138ZM243 595L333 727H478L388 595H243Z" />
<glyph unicode="&#xe2;" horiz-adv-x="635" d="M262 -13Q195 -13 143 21T62 114T32 250Q32 330 67 393T167 491T318 527Q403 527 464 492T560 396T594 256V0H427V80H423Q409 53 387 32T335 -1T262 -13ZM314 138Q346 138 369 153T405 196T418 257Q418 291 405 316T369
357T314 373Q283 373 260 358T223 317T210 257Q210 223 223 196T259 154T314 138ZM148 577L239 709H396L487 577H359L317 642L276 577H148Z" />
<glyph unicode="&#xe3;" horiz-adv-x="635" d="M262 -13Q195 -13 143 21T62 114T32 250Q32 330 67 393T167 491T318 527Q403 527 464 492T560 396T594 256V0H427V80H423Q409 53 387 32T335 -1T262 -13ZM314 138Q346 138 369 153T405 196T418 257Q418 291 405 316T369
357T314 373Q283 373 260 358T223 317T210 257Q210 223 223 196T259 154T314 138ZM376 564Q350 564 332 569T301 584T272 603Q264 609 257 614T242 619Q236 619 232 616T227 605V575H136V603Q136 656 168 684T246 713Q280 713 303 701T346 674Q355 669 363 663T379
657Q385 657 390 661T395 674V703H486V674Q486 621 454 593T376 564Z" />
<glyph unicode="&#xe4;" horiz-adv-x="635" d="M418 575Q386 575 362 598T338 655Q338 688 362 711T418 735Q451 735 474 712T498 655Q498 622 475 599T418 575ZM205 575Q173 575 149 598T125 655Q125 688 149 711T205 735Q238 735 261 712T285 655Q285 622 262
599T205 575ZM262 -13Q195 -13 143 21T62 114T32 250Q32 330 67 393T167 491T318 527Q403 527 464 492T560 396T594 256V0H427V80H423Q409 53 387 32T335 -1T262 -13ZM314 138Q346 138 369 153T405 196T418 257Q418 291 405 316T369 357T314 373Q283 373 260 358T223
317T210 257Q210 223 223 196T259 154T314 138Z" />
<glyph unicode="&#xe5;" horiz-adv-x="635" d="M262 -13Q195 -13 143 21T62 114T32 250Q32 330 67 393T167 491T318 527Q403 527 464 492T560 396T594 256V0H427V80H423Q409 53 387 32T335 -1T262 -13ZM314 138Q346 138 369 153T405 196T418 257Q418 291 405 316T369
357T314 373Q283 373 260 358T223 317T210 257Q210 223 223 196T259 154T314 138ZM311 564Q266 564 234 593T202 668Q202 713 234 742T312 772Q357 772 389 743T421 668Q421 622 390 593T311 564ZM312 628Q326 628 336 639T346 668Q346 686 336 697T312 708Q297
708 287 697T277 668Q277 650 287 639T312 628Z" />
<glyph unicode="&#xe6;" horiz-adv-x="895" d="M192 0Q148 0 113 22T56 82T35 164Q35 211 55 244T109 295T188 313H362V346Q362 361 351 368T324 376H87V510H353Q381 510 407 500T454 473Q489 500 530 513T616 527Q692 527 747 496T833 407T864 274Q864 258 863
238T857 203H528Q534 181 547 167T582 145T633 138H807V0H647Q595 0 550 12T469 49Q447 26 416 13T349 0H192ZM247 128H324Q340 128 351 138T362 164V213H249Q226 213 213 200T200 169Q200 158 205 149T221 134T247 128ZM525 304H695Q694 319 691 331T681 355T664
374T641 386T613 390Q592 390 577 383T550 365T534 338T525 304Z" />
<glyph unicode="&#xe7;" horiz-adv-x="407" d="M310 0Q230 0 167 33T68 124T32 257Q32 332 68 390T167 482T310 515H399V371H321Q286 371 260 356T220 315T206 257Q206 225 220 199T260 157T321 142H399V0H310ZM97 -203L196 32H347L248 -203H97Z" />
<glyph unicode="&#xe8;" horiz-adv-x="564" d="M329 0Q242 0 176 31T71 120T32 257Q32 345 69 405T167 496T298 527Q374 527 429 496T515 407T546 274Q546 258 545 238T539 203H212Q218 181 231 167T267 145T319 138H489V0H329ZM206 304H382Q382 319 378 331T367
355T350 374T326 386T296 390Q275 390 259 383T232 365T215 338T206 304ZM236 577L146 709H291L381 577H236Z" />
<glyph unicode="&#xe9;" horiz-adv-x="564" d="M329 0Q242 0 176 31T71 120T32 257Q32 345 69 405T167 496T298 527Q374 527 429 496T515 407T546 274Q546 258 545 238T539 203H212Q218 181 231 167T267 145T319 138H489V0H329ZM206 304H382Q382 319 378 331T367
355T350 374T326 386T296 390Q275 390 259 383T232 365T215 338T206 304ZM220 595L310 727H455L365 595H220Z" />
<glyph unicode="&#xea;" horiz-adv-x="564" d="M329 0Q242 0 176 31T71 120T32 257Q32 345 69 405T167 496T298 527Q374 527 429 496T515 407T546 274Q546 258 545 238T539 203H212Q218 181 231 167T267 145T319 138H489V0H329ZM206 304H382Q382 319 378 331T367
355T350 374T326 386T296 390Q275 390 259 383T232 365T215 338T206 304ZM129 577L220 709H377L468 577H340L298 642L257 577H129Z" />
<glyph unicode="&#xeb;" horiz-adv-x="564" d="M400 575Q368 575 345 598T321 655Q321 688 344 711T400 735Q433 735 457 712T481 655Q481 622 457 599T400 575ZM187 575Q155 575 132 598T108 655Q108 688 131 711T187 735Q220 735 244 712T268 655Q268 622 244
599T187 575ZM329 0Q242 0 176 31T71 120T32 257Q32 345 69 405T167 496T298 527Q374 527 429 496T515 407T546 274Q546 258 545 238T539 203H212Q218 181 231 167T267 145T319 138H489V0H329ZM206 304H382Q382 319 378 331T367 355T350 374T326 386T296 390Q275
390 259 383T232 365T215 338T206 304Z" />
<glyph unicode="&#xec;" horiz-adv-x="274" d="M50 0V515H224V0H50ZM74 577L-16 709H129L219 577H74Z" />
<glyph unicode="&#xed;" horiz-adv-x="274" d="M50 0V515H224V0H50ZM52 595L142 727H287L197 595H52Z" />
<glyph unicode="&#xee;" horiz-adv-x="274" d="M50 0V515H224V0H50ZM-33 577L58 709H215L306 577H178L136 642L95 577H-33Z" />
<glyph unicode="&#xef;" horiz-adv-x="274" d="M243 580Q210 580 187 603T163 660Q163 693 186 717T243 741Q276 741 299 717T323 660Q323 627 300 604T243 580ZM30 580Q-3 580 -26 603T-50 660Q-50 693 -27 717T30 741Q63 741 86 717T110 660Q110 627 87 604T30
580ZM50 0V515H224V0H50Z" />
<glyph unicode="&#xf0;" horiz-adv-x="627" d="M315 -12Q250 -12 198 7T109 63T52 148T32 258Q32 334 63 392T146 483T257 516Q274 516 291 513T322 502L324 503L268 578L133 558V655L203 665L156 730H362L388 691L509 708V613L445 604L491 533Q523 486 546 445T581
360T594 268Q594 184 560 121T463 23T315 -12ZM315 142Q346 142 369 157T405 199T418 260Q418 296 405 321T368 361T316 376Q284 376 260 361T223 319T210 260Q210 226 223 199T259 157T315 142Z" />
<glyph unicode="&#xf1;" horiz-adv-x="614" d="M50 0V296Q50 362 82 414T174 497T314 527Q394 527 452 497T541 415T572 296V0H398V288Q398 311 387 330T357 362T311 374Q286 374 266 362T234 331T223 288V0H50ZM371 565Q345 565 327 570T296 585T267 604Q259
610 252 615T237 620Q231 620 227 617T222 606V576H131V604Q131 657 163 685T241 714Q275 714 298 702T341 675Q350 670 358 664T374 658Q380 658 385 662T390 675V704H481V675Q481 622 449 594T371 565Z" />
<glyph unicode="&#xf2;" horiz-adv-x="618" d="M313 -12Q235 -12 172 22T70 118T32 258Q32 336 70 397T172 492T314 527Q392 527 455 493T556 397T594 258Q594 179 557 118T456 23T313 -12ZM313 142Q345 142 369 157T407 198T420 258Q420 292 407 318T370 359T313
374Q281 374 257 359T220 318T206 258Q206 225 219 199T257 157T313 142ZM258 577L168 709H313L403 577H258Z" />
<glyph unicode="&#xf3;" horiz-adv-x="618" d="M313 -12Q235 -12 172 22T70 118T32 258Q32 336 70 397T172 492T314 527Q392 527 455 493T556 397T594 258Q594 179 557 118T456 23T313 -12ZM313 142Q345 142 369 157T407 198T420 258Q420 292 407 318T370 359T313
374Q281 374 257 359T220 318T206 258Q206 225 219 199T257 157T313 142ZM238 595L328 727H473L383 595H238Z" />
<glyph unicode="&#xf4;" horiz-adv-x="618" d="M313 -12Q235 -12 172 22T70 118T32 258Q32 336 70 397T172 492T314 527Q392 527 455 493T556 397T594 258Q594 179 557 118T456 23T313 -12ZM313 142Q345 142 369 157T407 198T420 258Q420 292 407 318T370 359T313
374Q281 374 257 359T220 318T206 258Q206 225 219 199T257 157T313 142ZM144 577L235 709H392L483 577H355L313 642L272 577H144Z" />
<glyph unicode="&#xf5;" horiz-adv-x="618" d="M313 -12Q235 -12 172 22T70 118T32 258Q32 336 70 397T172 492T314 527Q392 527 455 493T556 397T594 258Q594 179 557 118T456 23T313 -12ZM313 142Q345 142 369 157T407 198T420 258Q420 292 407 318T370 359T313
374Q281 374 257 359T220 318T206 258Q206 225 219 199T257 157T313 142ZM373 563Q347 563 329 568T298 583T269 602Q261 608 254 613T239 618Q233 618 229 615T224 604V574H133V602Q133 655 165 683T243 712Q277 712 300 700T343 673Q352 668 360 662T376 656Q382
656 387 660T392 673V702H483V673Q483 620 451 592T373 563Z" />
<glyph unicode="&#xf6;" horiz-adv-x="618" d="M418 575Q386 575 362 598T338 655Q338 688 362 711T418 735Q451 735 474 712T498 655Q498 622 475 599T418 575ZM205 575Q173 575 149 598T125 655Q125 688 149 711T205 735Q238 735 261 712T285 655Q285 622 262
599T205 575ZM313 -12Q235 -12 172 22T70 118T32 258Q32 336 70 397T172 492T314 527Q392 527 455 493T556 397T594 258Q594 179 557 118T456 23T313 -12ZM313 142Q345 142 369 157T407 198T420 258Q420 292 407 318T370 359T313 374Q281 374 257 359T220 318T206
258Q206 225 219 199T257 157T313 142Z" />
<glyph unicode="&#xf7;" horiz-adv-x="572" d="M286 469Q248 469 220 496T192 562Q192 601 219 628T286 656Q324 656 351 629T378 562Q378 524 351 497T286 469ZM286 44Q248 44 220 71T192 137Q192 175 219 202T286 230Q324 230 351 203T378 136Q378 98 351 71T286
44ZM43 280V420H529V280H43Z" />
<glyph unicode="&#xf8;" horiz-adv-x="626" d="M313 -12Q273 -12 236 -2T167 26L143 0H9L90 90Q63 124 48 166T32 258Q32 336 70 397T172 492T314 527Q354 527 390 518T458 491L480 515H616L535 427Q563 393 578 350T594 258Q594 179 557 118T456 23T313 -12ZM313
139Q347 139 371 154T409 197T423 258Q423 272 421 284T414 308L268 149Q278 144 289 142T313 139ZM212 210L357 368Q348 373 337 375T313 377Q281 377 256 362T217 319T203 258Q203 245 205 233T212 210Z" />
<glyph unicode="&#xf9;" horiz-adv-x="614" d="M314 -13Q234 -13 175 18T83 101T50 219V515H223V227Q223 205 234 185T265 153T311 141Q337 141 356 153T387 185T398 227V515H572V219Q572 153 541 101T452 18T314 -13ZM250 577L160 709H305L395 577H250Z" />
<glyph unicode="&#xfa;" horiz-adv-x="614" d="M314 -13Q234 -13 175 18T83 101T50 219V515H223V227Q223 205 234 185T265 153T311 141Q337 141 356 153T387 185T398 227V515H572V219Q572 153 541 101T452 18T314 -13ZM231 595L321 727H466L376 595H231Z" />
<glyph unicode="&#xfb;" horiz-adv-x="614" d="M314 -13Q234 -13 175 18T83 101T50 219V515H223V227Q223 205 234 185T265 153T311 141Q337 141 356 153T387 185T398 227V515H572V219Q572 153 541 101T452 18T314 -13ZM136 577L227 709H384L475 577H347L305 642L264
577H136Z" />
<glyph unicode="&#xfc;" horiz-adv-x="614" d="M415 575Q383 575 360 598T336 655Q336 688 359 711T415 735Q448 735 472 712T496 655Q496 622 472 599T415 575ZM202 575Q170 575 147 598T123 655Q123 688 146 711T202 735Q235 735 259 712T283 655Q283 622 259
599T202 575ZM314 -13Q234 -13 175 18T83 101T50 219V515H223V227Q223 205 234 185T265 153T311 141Q337 141 356 153T387 185T398 227V515H572V219Q572 153 541 101T452 18T314 -13Z" />
<glyph unicode="&#xfd;" horiz-adv-x="621" d="M224 -203V0Q170 14 131 46T71 122T50 219V515H223V228Q223 205 234 186T265 154T311 141Q337 141 356 153T386 185T397 228V515H571V219Q571 167 551 122T492 45T398 -1V-203H224ZM231 595L321 727H466L376 595H231Z" />
<glyph unicode="&#xfe;" horiz-adv-x="645" d="M50 -203V730H223V472H228Q246 491 267 503T314 521T366 527Q436 527 492 494T580 401T612 258Q612 196 594 146T542 60T465 6T368 -13Q326 -13 291 1T228 42H223V-203H50ZM331 138Q362 138 385 153T422 196T435
257Q435 290 422 316T386 357T331 373Q300 373 277 358T240 316T227 257Q227 223 240 196T276 154T331 138Z" />
<glyph unicode="&#xff;" horiz-adv-x="621" d="M415 575Q383 575 359 598T335 655Q335 688 359 711T415 735Q448 735 471 712T495 655Q495 622 472 599T415 575ZM202 575Q170 575 146 598T122 655Q122 688 146 711T202 735Q235 735 258 712T282 655Q282 622 259
599T202 575ZM224 -203V0Q170 14 131 46T71 122T50 219V515H223V228Q223 205 234 186T265 154T311 141Q337 141 356 153T386 185T397 228V515H571V219Q571 167 551 122T492 45T398 -1V-203H224Z" />
<glyph unicode="&#x2013;" horiz-adv-x="500" d="M0 193V319H500V193H0Z" />
<glyph unicode="&#x2014;" horiz-adv-x="1000" d="M0 193V319H1000V193H0Z" />
<glyph unicode="&#x2018;" horiz-adv-x="266" d="M134 361Q89 361 61 392T33 466Q33 493 39 518T55 573L102 700H226L174 553Q201 541 217 516T233 463Q233 419 204 390T134 361Z" />
<glyph unicode="&#x2019;" horiz-adv-x="266" d="M42 374L95 521Q67 534 51 559T35 611Q35 655 64 684T134 713Q180 713 208 682T236 608Q236 581 230 556T212 501L166 374H42Z" />
<glyph unicode="&#x201a;" horiz-adv-x="266" d="M40 -157L94 -4Q66 9 51 34T35 86Q35 130 64 159T134 188Q179 188 207 157T235 83Q235 56 230 31T212 -24L164 -157H40Z" />
<glyph unicode="&#x201c;" horiz-adv-x="523" d="M134 361Q89 361 61 392T33 466Q33 493 39 518T55 573L102 700H226L174 553Q201 541 217 516T233 463Q233 419 204 390T134 361ZM389 361Q344 361 316 392T288 466Q288 493 294 518T310 573L357 700H481L429 553Q456
541 472 516T488 463Q488 419 459 390T389 361Z" />
<glyph unicode="&#x201d;" horiz-adv-x="523" d="M42 374L95 521Q67 534 51 559T35 611Q35 655 64 684T134 713Q180 713 208 682T236 608Q236 581 230 556T212 501L166 374H42ZM297 374L350 521Q322 534 306 559T290 611Q290 655 319 684T389 713Q435 713 463
682T491 608Q491 581 485 556T467 501L421 374H297Z" />
<glyph unicode="&#x201e;" horiz-adv-x="521" d="M40 -157L94 -4Q66 9 51 34T35 86Q35 130 64 159T134 188Q179 188 207 157T235 83Q235 56 230 31T212 -24L164 -157H40ZM295 -157L349 -4Q321 9 306 34T290 86Q290 130 319 159T389 188Q434 188 462 157T490 83Q490
56 485 31T467 -24L419 -157H295Z" />
<glyph unicode="&#x2022;" horiz-adv-x="299" d="M148 161Q100 161 66 195T31 279Q31 327 65 362T148 397Q197 397 231 362T266 279Q266 230 232 196T148 161Z" />
<glyph unicode="&#x2039;" horiz-adv-x="344" d="M169 119L26 317L169 515H316L177 317L316 119H169Z" />
<glyph unicode="&#x203a;" horiz-adv-x="344" d="M27 119L166 317L27 515H175L318 317L175 119H27Z" />
</font>
</defs>
</svg>
