<?xml version="1.0" standalone="no"?>
<!DOCTYPE svg PUBLIC "-//W3C//DTD SVG 1.1//EN" "http://www.w3.org/Graphics/SVG/1.1/DTD/svg11.dtd">
<svg xmlns="http://www.w3.org/2000/svg">
<defs >
<font id="MuseoModerno" horiz-adv-x="599" ><font-face
    font-family="MuseoModerno Thin SemiBold"
    units-per-em="1000"
    panose-1="0 0 0 0 0 0 0 0 0 0"
    ascent="1145"
    descent="-445"
    alphabetic="0" />
<glyph unicode=" " horiz-adv-x="265" />
<glyph unicode="!" horiz-adv-x="286" d="M75 242V700H212V242H75ZM143 -12Q105 -12 78 15T50 81Q50 119 77 146T143 174Q181 174 208 147T236 81Q236 56 224 35T190 1T143 -12Z" />
<glyph unicode="&quot;" horiz-adv-x="485" d="M288 383V700H425V383H288ZM60 383V700H197V383H60Z" />
<glyph unicode="#" horiz-adv-x="720" d="M131 0L151 160H20V269H164L185 431H54V540H198L218 700H330L310 540H457L477 700H589L569 540H699L700 431H556L536 269H666V160H523L503 0H390L410 160H263L243 0H131ZM276 269H423L444 431H297L276 269Z" />
<glyph unicode="$" horiz-adv-x="626" d="M273 -119V67H369V-119H273ZM273 643V819H369V643H273ZM69 0V126H369Q391 126 409 137T438 166T449 207Q449 230 438 248T409 278T369 289H252Q193 289 145 313T69 382T40 492Q40 555 67 601T140 674T242 700H546V574H256Q236
574 219 564T193 536T183 498Q183 477 192 460T219 433T256 423H377Q442 423 490 398T564 328T591 223Q591 152 564 102T490 26T387 0H69Z" />
<glyph unicode="%" horiz-adv-x="912" d="M218 322Q171 322 132 343T69 398T45 475V559Q45 601 68 636T131 691T218 712Q266 712 305 692T367 636T391 559V475Q391 433 368 399T305 343T218 322ZM219 419Q237 419 252 428T277 452T287 486V549Q287 568 278 583T253
607T219 617Q200 617 185 608T160 583T150 549V486Q150 467 159 452T184 428T219 419ZM694 -12Q647 -12 608 9T545 64T521 141V225Q521 267 544 302T607 357T694 378Q742 378 781 358T843 302T867 225V141Q867 99 844 65T781 9T694 -12ZM695 85Q713 85 728 94T753
118T763 152V215Q763 234 754 249T729 273T695 283Q676 283 661 274T636 249T626 215V152Q626 133 635 118T660 94T695 85ZM167 0L637 700H744L274 0H167Z" />
<glyph unicode="&amp;" horiz-adv-x="827" d="M661 -216Q614 -216 576 -196T517 -142T495 -66Q495 -30 512 0T556 51T614 79Q610 82 609 83T604 87L556 126Q530 83 490 52T399 5T292 -12Q210 -12 150 18T57 102T24 228Q24 276 42 318T92 393T166 447Q151 461 140
478T123 516T117 558Q117 601 139 636T199 692T283 713Q333 713 370 694T428 640T449 558Q449 516 428 482T368 428L510 313L512 318Q529 361 547 393T587 447T640 480T716 491H785V384H723Q697 384 681 376T653 351T631 308T606 245L603 237L609 233Q686 176 734
127T804 33T827 -58Q827 -104 806 -140T748 -196T661 -216ZM299 110Q332 110 361 119T416 149T462 203L251 375Q228 363 208 345T175 303T162 244Q162 207 179 177T228 128T299 110ZM662 -111Q680 -111 692 -98T705 -60Q705 -46 701 -32T685 -5Q665 -9 650 -17T626
-39T617 -69Q617 -88 630 -99T662 -111ZM284 497Q299 506 308 517T322 539T327 559Q327 578 315 591T283 605Q270 605 260 599T245 582T239 559Q239 546 245 536T261 517T284 497Z" />
<glyph unicode="&apos;" horiz-adv-x="257" d="M60 383V700H197V383H60Z" />
<glyph unicode="(" horiz-adv-x="376" d="M223 -180Q159 -103 116 10T73 275Q73 426 116 540T223 730H376Q308 654 262 540T216 275Q216 124 262 11T376 -180H223Z" />
<glyph unicode=")" horiz-adv-x="376" d="M0 -180Q68 -103 114 10T160 275Q160 426 114 540T0 730H153Q217 654 260 540T303 275Q303 124 260 11T153 -180H0Z" />
<glyph unicode="*" horiz-adv-x="450" d="M178 328V433L87 381L40 462L131 514L40 567L87 648L178 595V701H272V595L363 648L410 567L319 514L410 462L363 381L272 433V328H178Z" />
<glyph unicode="+" horiz-adv-x="576" d="M223 119V289H50V411H223V581H352V411H526V289H352V119H223Z" />
<glyph unicode="," horiz-adv-x="266" d="M47 -157L99 -5Q69 6 55 31T40 83Q40 121 67 147T133 174Q176 174 201 145T226 77Q226 50 222 28T206 -25L161 -157H47Z" />
<glyph unicode="-" horiz-adv-x="363" d="M40 194V319H323V194H40Z" />
<glyph unicode="." horiz-adv-x="266" d="M133 -12Q95 -12 68 15T40 81Q40 119 67 146T133 174Q171 174 198 147T226 81Q226 56 214 35T180 1T133 -12Z" />
<glyph unicode="/" horiz-adv-x="374" d="M-33 -100L257 730H387L97 -100H-33Z" />
<glyph unicode="0" horiz-adv-x="648" d="M325 -12Q249 -12 189 21T95 110T60 237V463Q60 533 94 589T189 679T325 712Q400 712 459 679T553 590T588 463V237Q588 167 554 111T460 21T325 -12ZM325 114Q358 114 385 129T428 171T445 228V472Q445 504 429 529T385
570T325 586Q292 586 264 571T220 530T203 472V228Q203 197 219 171T264 130T325 114Z" />
<glyph unicode="1" horiz-adv-x="480" d="M50 0V126H182V574H61V700H327V126H445V0H50Z" />
<glyph unicode="2" horiz-adv-x="560" d="M168 0Q128 0 98 17T52 64T35 129Q35 163 52 195T98 247L313 401Q335 417 346 439T357 485Q357 513 345 532T311 563T258 574H73V700H275Q344 700 394 671T471 594T499 485Q499 425 476 380T399 298L184 152Q182 151 179
148T176 139Q176 132 180 129T191 126H520V0H168Z" />
<glyph unicode="3" horiz-adv-x="570" d="M50 0V126H289Q312 126 331 137T361 167T372 209Q372 232 361 251T331 281T289 293H84V419H295Q317 419 334 429T361 457T372 496Q372 518 362 535T334 563T295 574H50V700H311Q368 700 414 673T487 599T515 496Q515 455
497 418T448 353Q469 335 484 312T507 263T515 209Q515 151 487 104T412 28T306 0H50Z" />
<glyph unicode="4" horiz-adv-x="645" d="M372 0V149H179Q141 149 109 167T58 215T39 281Q39 301 44 321T57 357L239 700H400L187 306Q184 300 183 297T182 289Q182 283 186 279T197 275H372V511H515V275H605V149H515V0H372Z" />
<glyph unicode="5" horiz-adv-x="551" d="M35 0V126H259Q288 126 312 140T350 178T364 231Q364 260 350 283T312 321T259 335H57V700H460V574H194V458H277Q340 458 392 427T475 344T506 229Q506 166 475 114T392 31T277 0H35Z" />
<glyph unicode="6" horiz-adv-x="632" d="M316 -12Q232 -12 172 20T79 105T46 225Q46 293 71 354T138 477L287 700H455L292 453Q305 456 318 457T344 458Q416 458 470 428T555 345T586 225Q586 160 554 106T461 20T316 -12ZM316 114Q358 114 386 129T429 169T443
225Q443 255 429 280T387 321T316 336Q274 336 246 321T204 281T189 225Q189 195 203 170T246 129T316 114Z" />
<glyph unicode="7" horiz-adv-x="536" d="M61 0L354 543Q359 553 359 560Q359 566 355 570T344 574H25V700H362Q401 700 432 682T483 635T502 568Q502 548 497 529T484 492L223 0H61Z" />
<glyph unicode="8" horiz-adv-x="654" d="M327 -12Q247 -12 186 17T90 96T55 206Q55 237 66 266T98 320T148 365Q111 393 91 429T71 507Q71 564 103 610T193 684T327 712Q403 712 460 685T550 611T583 507Q583 466 563 430T506 365Q535 345 556 320T588 266T599
206Q599 146 565 97T469 18T327 -12ZM327 114Q365 114 394 126T439 160T456 208Q456 248 420 275T327 302Q270 302 235 275T199 208Q199 182 215 161T260 127T327 114ZM327 424Q378 424 409 447T440 505Q440 528 426 546T387 575T327 586Q293 586 268 575T228 546T214
505Q214 471 245 448T327 424Z" />
<glyph unicode="9" horiz-adv-x="632" d="M177 0L340 247Q327 244 315 243T288 242Q216 242 162 272T77 356T46 475Q46 541 78 594T171 680T316 712Q401 712 461 681T553 595T586 475Q586 430 575 388T543 306T494 223L345 0H177ZM316 364Q358 364 386 379T429
420T443 475Q443 506 429 531T387 571T316 586Q274 586 246 571T204 531T189 475Q189 445 203 420T246 380T316 364Z" />
<glyph unicode=":" horiz-adv-x="266" d="M133 336Q95 336 68 363T40 429Q40 467 67 494T133 522Q171 522 198 495T226 429Q226 404 214 383T180 349T133 336ZM133 -12Q95 -12 68 15T40 81Q40 119 67 146T133 174Q171 174 198 147T226 81Q226 56 214 35T180 1T133 -12Z" />
<glyph unicode=";" horiz-adv-x="266" d="M133 337Q95 337 68 364T40 430Q40 468 67 495T133 523Q171 523 198 496T226 430Q226 392 199 365T133 337ZM47 -157L99 -5Q69 6 55 31T40 83Q40 121 67 147T133 174Q176 174 201 145T226 77Q226 50 222 28T206 -25L161 -157H47Z" />
<glyph unicode="&lt;" horiz-adv-x="576" d="M526 104L50 285V415L526 596V472L193 350L526 229V104Z" />
<glyph unicode="=" horiz-adv-x="576" d="M50 413V535H526V413H50ZM50 165V287H526V165H50Z" />
<glyph unicode="&gt;" horiz-adv-x="576" d="M50 104V229L383 350L50 472V596L526 415V285L50 104Z" />
<glyph unicode="?" horiz-adv-x="401" d="M106 228V345Q145 345 173 361T217 404T232 464Q232 497 217 524T174 567T106 583H52V700H106Q182 700 242 669T336 584T371 464Q371 398 337 345T242 260T106 228ZM137 -12Q99 -12 72 15T44 81Q44 119 71 146T137 174Q175
174 202 147T230 81Q230 56 218 35T184 1T137 -12Z" />
<glyph unicode="@" horiz-adv-x="1020" d="M510 -218Q414 -218 330 -182T181 -82T81 66T45 247Q45 343 81 427T181 576T329 676T510 712Q606 712 690 676T839 576T939 428T975 247Q975 178 955 127T893 49T791 21Q750 21 715 38T654 84Q625 55 588 38T510 21Q448
21 397 51T315 133T284 247Q284 310 314 361T396 443T510 474Q573 474 624 444T706 362T737 247V197Q737 181 744 169T764 150T792 143Q816 143 828 156T845 192T850 247Q850 318 824 379T751 487T643 560T510 587Q440 587 379 561T270 488T197 380T171 247Q171
177 197 116T270 7T378 -66T510 -92H559V-218H510ZM510 143Q540 143 562 157T598 196T611 247Q611 275 598 298T563 337T510 352Q481 352 458 337T423 299T410 247Q410 220 422 196T458 158T510 143Z" />
<glyph unicode="A" horiz-adv-x="729" d="M0 0L228 622Q245 667 281 689T364 712Q410 712 447 691T500 623L729 0H572L525 141H199L150 0H0ZM242 267H483L382 574Q380 581 376 584T365 587Q359 587 355 584T349 574L242 267Z" />
<glyph unicode="B" horiz-adv-x="702" d="M70 0V700H463Q513 700 553 678T618 615T643 520Q643 485 629 454T591 399T535 363Q572 351 600 325T645 263T662 186Q662 130 637 88T569 23T475 0H70ZM213 126H434Q458 126 477 137T507 168T519 211Q519 235 508 254T477
284T434 296H213V126ZM213 416H421Q443 416 461 426T489 455T500 495Q500 517 490 535T461 563T421 574H213V416Z" />
<glyph unicode="C" horiz-adv-x="538" d="M389 0Q307 2 241 29T128 104T56 215T30 350Q30 422 55 485T128 595T241 671T389 700H498V574H392Q344 573 304 556T235 509T189 439T173 350Q173 302 189 262T234 191T304 144T392 126H498V0H389Z" />
<glyph unicode="D" horiz-adv-x="703" d="M70 0V700H306Q418 700 500 655T627 531T673 350Q673 248 628 169T500 45T306 0H70ZM213 126H306Q371 126 421 153T501 230T530 350Q530 420 501 470T422 547T306 574H213V126Z" />
<glyph unicode="E" horiz-adv-x="572" d="M249 0Q191 0 144 28T68 103T40 209Q40 251 58 288T107 353Q76 381 58 418T40 496Q40 553 67 599T141 672T244 700H532V574H260Q239 574 222 564T194 536T183 496Q183 475 193 458T221 430T260 419H498V293H266Q243 293
224 282T194 251T183 209Q183 186 194 167T224 137T266 126H532V0H249Z" />
<glyph unicode="F" horiz-adv-x="550" d="M58 0V496Q58 553 85 599T159 672T262 700H515V574H278Q246 574 224 551T201 496V383H481V257H201V0H58Z" />
<glyph unicode="G" horiz-adv-x="794" d="M568 -218Q510 -218 469 -198T406 -138T384 -46Q384 -33 385 -20T388 8Q306 8 240 35T127 111T55 224T30 360Q30 433 55 496T127 608T240 684T387 712Q468 712 534 686T647 612T719 503T744 370V-28Q744 -80 725 -123T667
-192T568 -218ZM559 -90Q580 -90 590 -74T601 -30V146Q567 116 550 88T525 36T518 -5T517 -30Q517 -49 522 -62T538 -83T559 -90ZM387 134Q401 134 414 135T440 140Q457 166 480 192T533 243T601 291V370Q601 416 585 455T540 524T472 569T387 586Q341 586 302
569T234 522T189 450T173 360Q173 312 189 271T234 199T302 151T387 134Z" />
<glyph unicode="H" horiz-adv-x="732" d="M70 0V700H213V419H519V700H662V0H519V293H213V0H70Z" />
<glyph unicode="I" horiz-adv-x="499" d="M52 0V126H178V574H52V700H447V574H321V126H447V0H52Z" />
<glyph unicode="J" horiz-adv-x="430" d="M184 -218Q126 -218 85 -198T22 -138T0 -46Q0 1 18 58T84 174T218 284V574H78V700H360V-28Q360 -80 341 -123T283 -192T184 -218ZM175 -90Q189 -90 198 -83T212 -62T217 -30V139Q172 101 155 66T135 6T133 -30Q133 -59
145 -74T175 -90Z" />
<glyph unicode="K" horiz-adv-x="678" d="M70 0V700H213V409H346Q380 409 408 422T452 462T469 524V700H612V524Q612 454 579 401T492 316L576 139Q579 132 585 129T600 126H668V0H578Q528 0 496 20T447 76L348 283Q338 283 329 283T310 283H213V0H70Z" />
<glyph unicode="L" horiz-adv-x="471" d="M266 0Q204 0 157 28T84 104T58 209V700H201V192Q201 165 220 146T266 126H451V0H266Z" />
<glyph unicode="M" horiz-adv-x="1085" d="M542 -11Q483 -11 436 16T361 90T334 198V520Q334 538 325 553T301 577T268 586Q250 586 236 577T212 553T203 520V0H60V503Q60 561 86 608T159 683T268 712Q331 712 378 684T451 608T477 503V181Q477 163 486 148T509
124T542 115Q560 115 575 124T599 148T608 181V503Q608 561 634 608T707 683T817 712Q880 712 926 684T999 608T1025 503V0H882V520Q882 538 874 553T850 577T817 586Q799 586 784 577T760 553T751 520V198Q751 137 724 90T649 16T542 -11Z" />
<glyph unicode="N" horiz-adv-x="811" d="M542 -12Q480 -12 433 16T360 92T334 197V520Q334 538 325 553T301 577T268 586Q250 586 236 577T212 553T203 520V0H60V503Q60 561 86 608T159 683T268 712Q331 712 378 684T451 608T477 503V180Q477 162 486 147T509
123T542 114Q560 114 575 123T599 147T608 180V700H751V197Q751 140 725 93T652 17T542 -12Z" />
<glyph unicode="O" horiz-adv-x="794" d="M397 -13Q313 -13 246 15T130 94T56 210T30 351Q30 426 56 491T130 607T245 685T397 713Q481 713 548 685T664 607T738 492T764 351Q764 276 738 210T664 94T549 16T397 -13ZM397 114Q445 114 486 131T557 181T604 257T621
351Q621 402 605 445T558 520T486 569T397 587Q349 587 308 570T237 520T190 445T173 351Q173 300 189 257T236 182T308 132T397 114Z" />
<glyph unicode="P" horiz-adv-x="637" d="M70 0V700H363Q432 700 488 669T578 581T612 451Q612 378 579 322T489 234T363 202H213V0H70ZM213 328H346Q380 328 408 342T452 384T469 451Q469 490 453 517T408 559T346 574H213V328Z" />
<glyph unicode="Q" horiz-adv-x="794" d="M326 -203V10H468V-203H326ZM397 -13Q313 -13 246 15T130 94T56 210T30 351Q30 426 56 491T130 607T245 685T397 713Q481 713 548 685T664 607T738 492T764 351Q764 276 738 210T664 94T549 16T397 -13ZM397 114Q445 114
486 131T557 181T604 257T621 351Q621 402 605 445T558 520T486 569T397 587Q349 587 308 570T237 520T190 445T173 351Q173 300 189 257T236 182T308 132T397 114Z" />
<glyph unicode="R" horiz-adv-x="683" d="M70 0V700H383Q452 700 508 670T598 585T632 459Q632 389 599 336T512 251L576 139Q580 133 586 130T600 126H668V0H578Q536 0 502 21T447 76L368 218Q359 218 350 218T331 218H213V0H70ZM213 344H366Q400 344 428 357T472
397T489 459Q489 495 472 521T428 560T366 574H213V344Z" />
<glyph unicode="S" horiz-adv-x="626" d="M69 0V126H369Q391 126 409 137T438 166T449 207Q449 230 438 248T409 278T369 289H252Q193 289 145 313T69 382T40 492Q40 555 67 601T140 674T242 700H546V574H256Q236 574 219 564T193 536T183 498Q183 477 192 460T219
433T256 423H377Q442 423 490 398T564 328T591 223Q591 152 564 102T490 26T387 0H69Z" />
<glyph unicode="T" horiz-adv-x="563" d="M418 0Q356 0 309 28T236 104T210 209V574H15V700H548V574H353V192Q353 165 372 146T418 126H468V0H418Z" />
<glyph unicode="U" horiz-adv-x="712" d="M356 -12Q271 -12 206 23T103 122T65 276V700H208V267Q208 225 226 191T277 135T357 114Q402 114 435 135T486 190T504 267V700H647V276Q647 187 610 123T507 23T356 -12Z" />
<glyph unicode="V" horiz-adv-x="689" d="M345 -12Q299 -12 263 9T209 77L0 700H159L328 136Q330 129 334 126T345 123Q351 123 355 126T362 136L537 700H689L481 78Q465 33 428 11T345 -12Z" />
<glyph unicode="W" horiz-adv-x="1081" d="M336 -12Q255 -12 193 21T96 117T60 266V700H203V257Q203 218 219 186T265 134T336 114Q377 114 407 133T453 185T469 257V700H612V257Q612 218 628 186T674 134T745 114Q786 114 816 133T862 185T878 257V700H1021V266Q1021
180 986 118T888 22T745 -12Q703 -12 665 -2T596 30T540 80Q516 51 485 31T416 -1T336 -12Z" />
<glyph unicode="X" horiz-adv-x="703" d="M58 0L241 303Q192 321 156 354T99 436T79 545V700H222V536Q222 505 235 479T272 435T328 414L497 700H658L475 403Q531 389 573 355T638 271T661 155V0H518V164Q518 216 485 251T389 287L219 0H58Z" />
<glyph unicode="Y" horiz-adv-x="712" d="M284 0V193Q219 207 170 244T93 339T65 474V700H208V465Q208 423 226 389T277 333T356 312Q402 312 435 333T486 388T504 465V700H647V474Q647 398 620 340T543 244T427 193V0H284Z" />
<glyph unicode="Z" horiz-adv-x="600" d="M184 0Q117 0 76 41T35 148Q35 180 47 208T87 261L404 543Q406 545 407 548T409 555Q409 560 406 564T399 571T390 574H52V700H411Q456 700 489 681T541 629T560 552Q560 521 549 493T511 441L190 157Q189 156 188 154T186
150T185 145Q185 140 187 136T194 129T204 126H565V0H184Z" />
<glyph unicode="[" horiz-adv-x="359" d="M70 -180V730H339V604H203V-54H339V-180H70Z" />
<glyph unicode="\" horiz-adv-x="364" d="M267 -100L-23 730H107L397 -100H267Z" />
<glyph unicode="]" horiz-adv-x="359" d="M20 -180V-54H156V604H20V730H289V-180H20Z" />
<glyph unicode="^" horiz-adv-x="570" d="M60 376L223 730H348L510 376H390L284 611L178 376H60Z" />
<glyph unicode="_" horiz-adv-x="500" d="M0 -109V-12H500V-109H0Z" />
<glyph unicode="`" horiz-adv-x="205" d="M83 757L-1 880H128L212 757H83Z" />
<glyph unicode="a" horiz-adv-x="638" d="M266 -12Q196 -12 144 24T64 120T35 254Q35 329 67 390T161 486T307 522Q393 522 452 486T542 389T573 254V0H436V85H434Q419 58 397 36T342 1T266 -12ZM305 105Q345 105 374 125T418 179T434 256Q434 298 419 331T374
385T305 405Q264 405 235 385T190 332T174 256Q174 214 189 180T234 125T305 105Z" />
<glyph unicode="b" horiz-adv-x="633" d="M329 -12Q247 -12 187 22T93 118T60 265V730H197V447H198Q214 470 237 487T290 513T352 522Q427 522 482 489T567 399T598 265Q598 205 580 155T528 67T444 9T329 -12ZM329 105Q370 105 399 125T443 179T459 255Q459 297
444 331T399 385T329 405Q289 405 260 385T215 331T199 255Q199 213 214 179T259 125T329 105Z" />
<glyph unicode="c" horiz-adv-x="404" d="M310 0Q231 0 169 34T71 125T35 255Q35 327 71 384T169 476T310 510H374V393H310Q268 393 238 375T191 326T174 255Q174 216 190 185T237 135T310 117H374V0H310Z" />
<glyph unicode="d" horiz-adv-x="633" d="M304 -12Q240 -12 190 8T105 66T53 154T35 265Q35 341 65 398T151 489T281 522Q313 522 342 513T396 487T435 447H436V730H573V265Q573 181 540 119T447 22T304 -12ZM304 105Q345 105 374 125T418 179T434 255Q434 297
419 331T374 385T304 405Q264 405 235 385T190 331T174 255Q174 213 189 179T234 125T304 105Z" />
<glyph unicode="e" horiz-adv-x="562" d="M322 0Q235 0 171 33T71 125T35 255Q35 336 68 396T158 489T287 522Q373 522 426 486T505 390T530 255Q530 245 529 232T526 211H181Q189 180 208 159T257 128T324 117H466V0H322ZM180 303H393Q391 322 386 338T372 368T351
390T323 404T288 409Q263 409 244 400T211 376T191 342T180 303Z" />
<glyph unicode="f" horiz-adv-x="409" d="M99 0V393H10V510H99V585Q99 653 137 691T244 730H389V613H268Q255 613 246 604T236 581V510H367V393H236V0H99Z" />
<glyph unicode="g" horiz-adv-x="633" d="M142 -203V-86H404Q418 -86 427 -77T436 -54V71H435Q412 45 388 29T337 6T276 -2Q208 -2 154 30T67 122T35 259Q35 333 66 392T158 487T304 522Q387 522 447 488T540 392T573 245V-58Q573 -125 535 -164T428 -203H142ZM304
115Q345 115 374 134T418 184T434 255Q434 297 419 331T374 385T304 405Q264 405 235 386T190 333T174 259Q174 219 189 187T234 135T304 115Z" />
<glyph unicode="h" horiz-adv-x="628" d="M65 0V730H202V474Q234 500 271 511T344 522Q418 522 466 491T539 408T563 293V0H426V293Q426 324 411 349T371 390T314 405Q284 405 259 391T218 352T202 297V0H65Z" />
<glyph unicode="i" horiz-adv-x="267" d="M65 0V510H203V0H65ZM134 571Q99 571 74 596T48 657Q48 692 73 717T134 743Q169 743 194 718T220 657Q220 622 195 597T134 571Z" />
<glyph unicode="j" horiz-adv-x="267" d="M-77 -203V-86H34Q48 -86 57 -77T66 -54V510H203V-58Q203 -125 165 -164T58 -203H-77ZM133 572Q98 572 73 597T47 658Q47 693 72 718T133 744Q168 744 193 719T219 658Q219 623 194 598T133 572Z" />
<glyph unicode="k" horiz-adv-x="598" d="M65 0V730H202V315H283L406 510H556L416 294Q481 267 517 211T553 86V0H416V86Q416 117 401 142T360 183T304 198H202V0H65Z" />
<glyph unicode="l" horiz-adv-x="267" d="M65 0V730H202V0H65Z" />
<glyph unicode="m" horiz-adv-x="969" d="M65 0V303Q65 363 94 413T177 492T309 522Q346 522 377 514T436 489T483 451H484Q505 473 532 489T591 513T660 522Q737 522 791 493T875 413T904 303V0H767V303Q767 331 753 354T714 391T660 405Q631 405 607 391T568
354T553 303V0H416V303Q416 331 402 354T363 391T309 405Q280 405 256 391T217 354T202 303V0H65Z" />
<glyph unicode="n" horiz-adv-x="628" d="M65 0V293Q65 356 94 408T180 491T314 522Q393 522 448 491T533 408T563 293V0H426V293Q426 324 411 349T371 390T314 405Q283 405 258 390T217 350T202 293V0H65Z" />
<glyph unicode="o" horiz-adv-x="620" d="M310 -12Q231 -12 169 23T71 119T35 255Q35 330 71 390T169 486T310 522Q389 522 451 487T549 391T585 255Q585 180 549 120T451 24T310 -12ZM310 105Q352 105 382 125T429 179T446 255Q446 297 430 331T383 385T310 405Q268
405 238 385T191 331T174 255Q174 213 190 179T237 125T310 105Z" />
<glyph unicode="p" horiz-adv-x="633" d="M329 522Q394 522 444 502T528 444T580 356T598 245Q598 170 568 112T482 21T352 -12Q320 -12 291 -3T238 23T198 63H197V-220H60V245Q60 330 93 392T186 488T329 522ZM329 405Q289 405 260 385T215 331T199 255Q199 213
214 179T259 125T329 105Q370 105 399 125T443 179T459 255Q459 297 444 331T399 385T329 405Z" />
<glyph unicode="q" horiz-adv-x="620" d="M242 -203V12H379V-203H242ZM310 -12Q231 -12 169 23T71 119T35 255Q35 330 71 390T169 486T310 522Q389 522 451 487T549 391T585 255Q585 180 549 120T451 24T310 -12ZM310 105Q352 105 382 125T429 179T446 255Q446
297 430 331T383 385T310 405Q268 405 238 385T191 331T174 255Q174 213 190 179T237 125T310 105Z" />
<glyph unicode="r" horiz-adv-x="356" d="M60 0V365Q60 433 98 471T205 510H346V393H229Q216 393 207 384T197 361V0H60Z" />
<glyph unicode="s" horiz-adv-x="535" d="M67 0V117H316Q328 117 337 122T352 136T358 156Q358 168 353 177T338 191T316 197H220Q171 197 132 212T69 262T45 353Q45 396 66 431T124 488T205 510H444V393H218Q203 393 192 383T180 357Q180 341 191 331T218 320H314Q369
320 409 304T471 252T493 160Q493 116 471 80T412 22T329 0H67Z" />
<glyph unicode="t" horiz-adv-x="417" d="M242 0Q174 0 136 39T97 145V638H234V149Q234 136 243 127T266 117H377V0H242ZM10 393V510H377V393H10Z" />
<glyph unicode="u" horiz-adv-x="628" d="M314 -12Q236 -12 180 19T95 102T65 217V510H202V217Q202 186 217 161T257 120T314 105Q345 105 370 120T411 160T426 217V510H563V217Q563 154 534 102T449 19T314 -12Z" />
<glyph unicode="v" horiz-adv-x="576" d="M288 -12Q243 -12 207 12T156 75L10 510H159L277 131Q279 127 282 125T289 123Q293 123 296 125T301 131L420 510H566L420 76Q406 37 370 13T288 -12Z" />
<glyph unicode="w" horiz-adv-x="990" d="M254 -12Q202 -12 159 8T91 71T65 177V510H202V157Q202 143 209 131T228 112T254 105Q268 105 280 112T299 131T306 157V333Q306 393 329 435T395 499T495 522Q552 522 594 500T660 435T684 333V157Q684 143 691 131T710
112T736 105Q751 105 762 112T781 131T788 157V510H925V177Q925 113 900 71T831 9T736 -12Q685 -12 642 8T573 71T547 177V353Q547 368 540 379T522 398T495 405Q481 405 469 398T450 380T443 353V177Q443 113 417 71T349 9T254 -12Z" />
<glyph unicode="x" horiz-adv-x="600" d="M30 0L183 223Q143 243 116 273T74 343T59 426V510H196V426Q196 400 207 377T237 339T280 317L410 510H560L413 296Q459 279 491 247T540 174T557 85V0H420V85Q420 115 406 140T367 180T312 197L180 0H30Z" />
<glyph unicode="y" horiz-adv-x="628" d="M247 -203V-5Q189 7 149 39T87 117T65 217V510H202V217Q202 186 217 161T257 120T314 105Q345 105 370 120T411 160T426 217V510H563V217Q563 164 542 119T481 41T384 -4V-203H247Z" />
<glyph unicode="z" horiz-adv-x="506" d="M156 0Q122 0 95 17T52 62T35 126Q35 158 51 185T94 230L303 371Q307 373 308 376T309 381Q309 386 306 389T297 393H60V510H337Q371 510 398 493T441 448T458 384Q458 352 442 325T399 280L190 139Q187 137 186 134T184
129Q184 124 187 121T196 117H447V0H156Z" />
<glyph unicode="{" horiz-adv-x="385" d="M241 -180Q173 -180 135 -141T96 -35V180Q96 188 93 195T83 207T68 212H20V338H68Q80 338 88 347T96 370V585Q96 653 134 691T241 730H365V604H263Q250 604 241 595T231 572V377Q231 357 226 339T210 305T182 275Q199
262 209 246T225 212T231 173V-22Q231 -35 240 -44T263 -54H365V-180H241Z" />
<glyph unicode="|" horiz-adv-x="273" d="M70 -180V730H203V-180H70Z" />
<glyph unicode="}" horiz-adv-x="385" d="M20 -180V-54H122Q136 -54 145 -45T154 -22V173Q154 194 159 212T176 246T203 275Q187 289 176 304T160 338T154 377V572Q154 586 145 595T122 604H20V730H144Q212 730 250 692T289 585V370Q289 357 297 348T317 338H365V212H317Q309
212 303 208T293 196T289 180V-35Q289 -102 251 -141T144 -180H20Z" />
<glyph unicode="~" horiz-adv-x="576" d="M386 264Q355 264 329 273T281 294T236 316T190 325Q164 325 141 312T89 271L25 352Q72 399 111 421T190 443Q221 443 247 434T295 413T340 391T386 382Q404 382 420 388T452 406T487 436L551 355Q504 308 465 286T386 264Z" />
<glyph unicode="&#xa0;" horiz-adv-x="265" />
<glyph unicode="&#xa1;" horiz-adv-x="286" d="M75 -190V268H212V-190H75ZM143 522Q169 522 190 510T223 476T236 429Q236 391 209 364T143 336Q105 336 78 363T50 429Q50 467 77 494T143 522Z" />
<glyph unicode="&#xa2;" horiz-adv-x="409" d="M213 -119V30L310 15V-119H213ZM213 479V629H310V495L213 479ZM310 0Q231 0 169 34T71 125T35 255Q35 327 71 384T169 476T310 510H374V393H310Q268 393 238 375T191 326T174 255Q174 216 190 185T237 135T310 117H374V0H310Z"
/>
<glyph unicode="&#xa3;" horiz-adv-x="600" d="M60 0V126H158V491Q158 549 184 596T257 671T366 700H528V574H366Q339 574 320 555T301 508V126H565V0H60ZM60 306V431H459V306H60Z" />
<glyph unicode="&#xa4;" horiz-adv-x="697" d="M135 14L45 104L126 185Q108 215 98 249T88 321Q88 357 97 390T124 452L45 531L135 621L213 542Q242 560 275 569T346 579Q383 579 417 569T481 540L562 621L652 531L570 449Q604 390 604 321Q604 284 595 251T567
188L652 104L562 14L477 99Q448 82 415 73T346 63Q277 63 218 97L135 14ZM346 184Q384 184 415 202T464 252T483 321Q483 359 465 390T415 439T346 458Q308 458 277 440T228 390T209 321Q209 286 226 255T274 204T346 184Z" />
<glyph unicode="&#xa5;" horiz-adv-x="777" d="M317 0V124H45V221H317V265Q299 269 283 274T250 286H45V383H140Q119 418 109 459T98 545V700H241V536Q241 494 259 460T310 404T389 383Q435 383 468 404T519 459T537 536V700H680V545Q680 499 669 458T638 383H732V286H529Q513
279 496 274T460 264V221H732V124H460V0H317Z" />
<glyph unicode="&#xa6;" horiz-adv-x="273" d="M70 331V730H203V331H70ZM70 -180V219H203V-180H70Z" />
<glyph unicode="&#xa7;" horiz-adv-x="638" d="M141 -157V-40H357Q374 -40 387 -31T409 -7T417 28Q417 47 409 61T388 85T357 94H222Q166 94 127 118T66 184T45 276Q45 305 54 331T81 379T122 418Q106 440 97 465T87 518Q87 568 108 609T168 675T264 700H497V583H281Q264
583 251 574T229 550T221 514Q221 496 229 481T250 457T281 448H416Q472 448 511 424T572 358T593 267Q593 238 584 212T557 163T515 123Q533 102 542 77T551 24Q551 -26 530 -67T470 -132T374 -157H141ZM239 211H398Q415 211 429 219T451 240T459 271Q459 288
451 301T429 323T398 331H239Q222 331 209 323T187 302T179 271Q179 254 187 241T208 219T239 211Z" />
<glyph unicode="&#xa8;" horiz-adv-x="356" d="M284 748Q255 748 234 769T213 819Q213 848 234 869T284 890Q313 890 334 869T355 819Q355 790 334 769T284 748ZM71 748Q42 748 21 769T0 819Q0 848 21 869T71 890Q100 890 121 869T142 819Q142 790 121 769T71 748Z" />
<glyph unicode="&#xa9;" horiz-adv-x="814" d="M407 -12Q332 -12 267 16T151 94T73 209T45 350Q45 425 73 490T151 606T266 684T407 712Q482 712 547 684T663 606T741 491T769 350Q769 275 741 210T663 94T548 16T407 -12ZM407 56Q469 56 522 78T615 141T677 235T700
350Q700 412 678 465T615 558T522 620T408 643Q346 643 293 621T199 558T136 465T113 351Q113 289 135 236T198 142T292 79T407 56ZM428 160Q367 162 323 187T256 256T233 351Q233 402 256 444T323 512T428 539H488V450H429Q401 450 378 438T340 403T326 350Q326
320 340 298T377 263T429 250H488V160H428Z" />
<glyph unicode="&#xaa;" horiz-adv-x="415" d="M188 389Q144 389 112 410T62 468T45 551Q45 596 64 632T119 690T208 712Q262 712 298 691T352 633T370 551V396H284V459H283Q266 425 243 407T188 389ZM208 464Q243 464 262 489T282 551Q282 587 263 612T208 637Q173
637 153 612T133 551Q133 514 153 489T208 464Z" />
<glyph unicode="&#xab;" horiz-adv-x="547" d="M387 119L246 314L387 510H517L380 314L517 119H387ZM171 119L30 314L171 510H301L164 314L301 119H171Z" />
<glyph unicode="&#xac;" horiz-adv-x="559" d="M394 91V208H40V326H519V91H394Z" />
<glyph unicode="&#xad;" horiz-adv-x="363" d="M40 194V319H323V194H40Z" />
<glyph unicode="&#xae;" horiz-adv-x="814" d="M407 -12Q332 -12 267 16T151 94T73 209T45 350Q45 425 73 490T151 606T266 684T407 712Q482 712 547 684T663 606T741 491T769 350Q769 275 741 210T663 94T548 16T407 -12ZM407 56Q469 56 522 78T615 141T677 235T700
350Q700 412 678 465T615 558T522 620T408 643Q346 643 293 621T199 558T136 465T113 351Q113 289 135 236T198 142T292 79T407 56ZM262 160V539H432Q469 539 499 523T547 477T566 409Q566 372 548 343T501 296L535 240Q537 237 540 235T548 232H585V160H531Q508
160 490 172T461 201L419 274H350V160H262ZM350 352H423Q446 352 462 366T478 409Q478 433 462 446T423 460H350V352Z" />
<glyph unicode="&#xaf;" horiz-adv-x="330" d="M15 583V671H315V583H15Z" />
<glyph unicode="&#xb0;" horiz-adv-x="414" d="M207 378Q161 378 123 400T63 461T40 545Q40 591 62 629T123 689T207 712Q253 712 291 690T351 629T374 545Q374 499 352 461T291 401T207 378ZM207 473Q227 473 243 482T268 508T278 545Q278 565 269 581T243 606T207
616Q187 616 171 607T145 581T135 545Q135 525 144 509T170 483T207 473Z" />
<glyph unicode="&#xb1;" horiz-adv-x="576" d="M223 208V372H50V490H223V654H352V490H526V372H352V208H223ZM50 0V122H526V0H50Z" />
<glyph unicode="&#xb2;" horiz-adv-x="439" d="M143 245Q115 245 94 256T62 287T50 329Q50 353 62 374T94 410L244 510Q260 520 267 533T275 561Q275 586 258 600T216 615H76V700H228Q268 700 301 682T355 632T375 561Q375 522 360 493T314 446L159 348Q153 345
153 339Q153 335 156 333T164 331H389V245H143Z" />
<glyph unicode="&#xb3;" horiz-adv-x="425" d="M50 245V331H217Q239 331 254 345T270 381Q270 404 255 419T217 434H74V520H221Q241 520 255 533T270 568Q270 588 256 601T221 615H50V700H232Q272 700 304 682T356 635T375 568Q375 541 363 517T328 475Q350 457
362 433T375 381Q375 344 356 313T303 264T229 245H50Z" />
<glyph unicode="&#xb4;" horiz-adv-x="205" d="M3 757L87 880H216L132 757H3Z" />
<glyph unicode="&#xb5;" horiz-adv-x="628" d="M65 -203V510H202V217Q202 186 217 161T257 120T314 105Q345 105 370 120T411 160T426 217V510H563V217Q563 154 535 102T453 19T324 -12Q301 -12 280 -8T239 4T202 24V-203H65Z" />
<glyph unicode="&#xb6;" horiz-adv-x="662" d="M278 -203V223Q201 228 149 264T71 355T45 468Q45 530 73 582T159 667T304 700H602V606H541V-203H444V606H375V-203H278Z" />
<glyph unicode="&#xb7;" horiz-adv-x="266" d="M133 185Q95 185 68 212T40 278Q40 316 67 343T133 371Q171 371 198 344T226 278Q226 240 199 213T133 185Z" />
<glyph unicode="&#xb8;" horiz-adv-x="204" d="M-18 -203L79 24H210L113 -203H-18Z" />
<glyph unicode="&#xb9;" horiz-adv-x="377" d="M50 245V331H143V615H58V700H244V331H327V245H50Z" />
<glyph unicode="&#xba;" horiz-adv-x="425" d="M212 389Q165 389 127 410T68 467T46 547Q46 591 67 627T127 684T212 706H415V635H352Q366 616 372 594T379 547Q379 503 358 467T299 410T212 389ZM212 463Q249 463 270 487T291 547Q291 583 270 607T212 632Q176
632 155 608T134 547Q134 511 155 487T212 463Z" />
<glyph unicode="&#xbb;" horiz-adv-x="547" d="M246 119L383 314L246 510H376L517 314L376 119H246ZM30 119L167 314L30 510H160L301 314L160 119H30Z" />
<glyph unicode="&#xbc;" horiz-adv-x="1017" d="M804 0V97H668Q628 97 599 122T570 183Q570 197 573 209T583 233L710 455H823L676 203Q673 198 673 192Q673 188 676 186T683 183H804V333H904V183H967V97H904V0H804ZM50 245V331H143V615H58V700H244V331H327V245H50ZM222
0L668 700H775L329 0H222Z" />
<glyph unicode="&#xbd;" horiz-adv-x="1041" d="M50 245V331H143V615H58V700H244V331H327V245H50ZM222 0L668 700H775L329 0H222ZM745 -2Q717 -2 696 9T664 40T652 82Q652 106 664 127T696 163L846 263Q862 273 869 286T877 314Q877 339 860 353T818 368H678V453H830Q870
453 903 435T957 385T977 314Q977 275 962 246T916 199L761 101Q755 98 755 92Q755 88 758 86T766 84H991V-2H745Z" />
<glyph unicode="&#xbe;" horiz-adv-x="1052" d="M839 0V97H703Q663 97 634 122T605 183Q605 197 608 209T618 233L745 455H858L711 203Q708 198 708 192Q708 188 711 186T718 183H839V333H939V183H1002V97H939V0H839ZM50 245V331H217Q239 331 254 345T270 381Q270
404 255 419T217 434H74V520H221Q241 520 255 533T270 568Q270 588 256 601T221 615H50V700H232Q272 700 304 682T356 635T375 568Q375 541 363 517T328 475Q350 457 362 433T375 381Q375 344 356 313T303 264T229 245H50ZM243 0L689 700H796L350 0H243Z" />
<glyph unicode="&#xbf;" horiz-adv-x="391" d="M295 -190Q219 -190 159 -159T65 -73T30 46Q30 112 64 165T159 250T295 282V165Q256 165 228 149T185 106T169 46Q169 13 184 -14T228 -57T295 -73H349V-190H295ZM264 522Q302 522 329 495T357 429Q357 391 330 364T264
336Q226 336 199 363T171 429Q171 455 183 476T217 509T264 522Z" />
<glyph unicode="&#xc0;" horiz-adv-x="729" d="M0 0L228 622Q245 667 281 689T364 712Q410 712 447 691T500 623L729 0H572L525 141H199L150 0H0ZM242 267H483L382 574Q380 581 376 584T365 587Q359 587 355 584T349 574L242 267ZM302 757L218 880H347L431 757H302Z" />
<glyph unicode="&#xc1;" horiz-adv-x="729" d="M0 0L228 622Q245 667 281 689T364 712Q410 712 447 691T500 623L729 0H572L525 141H199L150 0H0ZM242 267H483L382 574Q380 581 376 584T365 587Q359 587 355 584T349 574L242 267ZM295 757L379 880H508L424 757H295Z" />
<glyph unicode="&#xc2;" horiz-adv-x="729" d="M0 0L228 622Q245 667 281 689T364 712Q410 712 447 691T500 623L729 0H572L525 141H199L150 0H0ZM242 267H483L382 574Q380 581 376 584T365 587Q359 587 355 584T349 574L242 267ZM207 757L291 880H438L522 757H411L364
825L318 757H207Z" />
<glyph unicode="&#xc3;" horiz-adv-x="729" d="M0 0L228 622Q245 667 281 689T364 712Q410 712 447 691T500 623L729 0H572L525 141H199L150 0H0ZM242 267H483L382 574Q380 581 376 584T365 587Q359 587 355 584T349 574L242 267ZM425 747Q398 747 381 753T352
768T331 786Q322 794 315 799T299 804Q291 804 285 799T279 784V757H195V782Q195 829 225 859T304 890Q338 890 359 876T396 851Q405 844 413 839T430 833Q438 833 444 838T450 853V880H534V855Q534 808 504 778T425 747Z" />
<glyph unicode="&#xc4;" horiz-adv-x="729" d="M474 748Q445 748 424 769T403 819Q403 848 424 869T474 890Q503 890 524 869T545 819Q545 790 524 769T474 748ZM261 748Q232 748 211 769T190 819Q190 848 211 869T261 890Q290 890 311 869T332 819Q332 790 311
769T261 748ZM0 0L228 622Q245 667 281 689T364 712Q410 712 447 691T500 623L729 0H572L525 141H199L150 0H0ZM242 267H483L382 574Q380 581 376 584T365 587Q359 587 355 584T349 574L242 267Z" />
<glyph unicode="&#xc5;" horiz-adv-x="729" d="M0 0L228 622Q245 667 281 689T364 712Q410 712 447 691T500 623L729 0H572L525 141H199L150 0H0ZM242 267H483L382 574Q380 581 376 584T365 587Q359 587 355 584T349 574L242 267ZM364 741Q324 741 297 768T269
836Q269 876 296 903T364 931Q404 931 431 904T459 836Q459 796 432 769T364 741ZM364 797Q381 797 392 808T403 836Q403 853 392 864T365 875Q348 875 337 864T325 836Q325 820 336 809T364 797Z" />
<glyph unicode="&#xc6;" horiz-adv-x="982" d="M0 0L228 622Q245 667 281 689T364 712Q400 712 428 697T482 649L485 645Q500 664 520 676T563 694T610 700H942V574H629Q599 574 580 557T555 515T556 470L574 419H908V293H620L662 180Q672 152 687 139T730 126H942V0H688Q631
0 593 29T540 98L525 141H199L150 0H0ZM242 267H483L382 574Q380 581 376 584T365 587Q359 587 355 584T349 574L242 267Z" />
<glyph unicode="&#xc7;" horiz-adv-x="538" d="M389 0Q307 2 241 29T128 104T56 215T30 350Q30 422 55 485T128 595T241 671T389 700H498V574H392Q344 573 304 556T235 509T189 439T173 350Q173 302 189 262T234 191T304 144T392 126H498V0H389ZM207 -203L304
24H435L338 -203H207Z" />
<glyph unicode="&#xc8;" horiz-adv-x="572" d="M249 0Q191 0 144 28T68 103T40 209Q40 251 58 288T107 353Q76 381 58 418T40 496Q40 553 67 599T141 672T244 700H532V574H260Q239 574 222 564T194 536T183 496Q183 475 193 458T221 430T260 419H498V293H266Q243
293 224 282T194 251T183 209Q183 186 194 167T224 137T266 126H532V0H249ZM279 757L195 880H324L408 757H279Z" />
<glyph unicode="&#xc9;" horiz-adv-x="572" d="M249 0Q191 0 144 28T68 103T40 209Q40 251 58 288T107 353Q76 381 58 418T40 496Q40 553 67 599T141 672T244 700H532V574H260Q239 574 222 564T194 536T183 496Q183 475 193 458T221 430T260 419H498V293H266Q243
293 224 282T194 251T183 209Q183 186 194 167T224 137T266 126H532V0H249ZM242 757L326 880H455L371 757H242Z" />
<glyph unicode="&#xca;" horiz-adv-x="572" d="M249 0Q191 0 144 28T68 103T40 209Q40 251 58 288T107 353Q76 381 58 418T40 496Q40 553 67 599T141 672T244 700H532V574H260Q239 574 222 564T194 536T183 496Q183 475 193 458T221 430T260 419H498V293H266Q243
293 224 282T194 251T183 209Q183 186 194 167T224 137T266 126H532V0H249ZM158 757L242 880H389L473 757H362L315 825L269 757H158Z" />
<glyph unicode="&#xcb;" horiz-adv-x="572" d="M446 748Q417 748 396 769T375 819Q375 848 396 869T446 890Q475 890 496 869T517 819Q517 790 496 769T446 748ZM233 748Q204 748 183 769T162 819Q162 848 183 869T233 890Q262 890 283 869T304 819Q304 790 283
769T233 748ZM249 0Q191 0 144 28T68 103T40 209Q40 251 58 288T107 353Q76 381 58 418T40 496Q40 553 67 599T141 672T244 700H532V574H260Q239 574 222 564T194 536T183 496Q183 475 193 458T221 430T260 419H498V293H266Q243 293 224 282T194 251T183 209Q183
186 194 167T224 137T266 126H532V0H249Z" />
<glyph unicode="&#xcc;" horiz-adv-x="499" d="M52 0V126H178V574H52V700H447V574H321V126H447V0H52ZM195 757L111 880H240L324 757H195Z" />
<glyph unicode="&#xcd;" horiz-adv-x="499" d="M52 0V126H178V574H52V700H447V574H321V126H447V0H52ZM176 758L260 881H389L305 758H176Z" />
<glyph unicode="&#xce;" horiz-adv-x="499" d="M52 0V126H178V574H52V700H447V574H321V126H447V0H52ZM93 757L177 880H324L408 757H297L250 825L204 757H93Z" />
<glyph unicode="&#xcf;" horiz-adv-x="499" d="M356 748Q327 748 306 769T285 819Q285 848 306 869T356 890Q385 890 406 869T427 819Q427 790 406 769T356 748ZM143 748Q114 748 93 769T72 819Q72 848 93 869T143 890Q172 890 193 869T214 819Q214 790 193 769T143
748ZM52 0V126H178V574H52V700H447V574H321V126H447V0H52Z" />
<glyph unicode="&#xd0;" horiz-adv-x="703" d="M70 0V290H0V415H70V700H306Q418 700 500 655T627 531T673 350Q673 248 628 169T500 45T306 0H70ZM213 126H306Q371 126 421 153T501 230T530 350Q530 420 501 470T422 547T306 574H213V415H318V290H213V126Z" />
<glyph unicode="&#xd1;" horiz-adv-x="811" d="M542 -12Q480 -12 433 16T360 92T334 197V520Q334 538 325 553T301 577T268 586Q250 586 236 577T212 553T203 520V0H60V503Q60 561 86 608T159 683T268 712Q331 712 378 684T451 608T477 503V180Q477 162 486 147T509
123T542 114Q560 114 575 123T599 147T608 180V700H751V197Q751 140 725 93T652 17T542 -12ZM477 747Q450 747 433 753T404 768T383 786Q374 794 367 799T351 804Q343 804 337 799T331 784V757H247V782Q247 829 277 859T356 890Q390 890 411 876T448 851Q457 844
465 839T482 833Q490 833 496 838T502 853V880H586V855Q586 808 556 778T477 747Z" />
<glyph unicode="&#xd2;" horiz-adv-x="794" d="M397 -13Q313 -13 246 15T130 94T56 210T30 351Q30 426 56 491T130 607T245 685T397 713Q481 713 548 685T664 607T738 492T764 351Q764 276 738 210T664 94T549 16T397 -13ZM397 114Q445 114 486 131T557 181T604
257T621 351Q621 402 605 445T558 520T486 569T397 587Q349 587 308 570T237 520T190 445T173 351Q173 300 189 257T236 182T308 132T397 114ZM346 757L262 880H391L475 757H346Z" />
<glyph unicode="&#xd3;" horiz-adv-x="794" d="M397 -13Q313 -13 246 15T130 94T56 210T30 351Q30 426 56 491T130 607T245 685T397 713Q481 713 548 685T664 607T738 492T764 351Q764 276 738 210T664 94T549 16T397 -13ZM397 114Q445 114 486 131T557 181T604
257T621 351Q621 402 605 445T558 520T486 569T397 587Q349 587 308 570T237 520T190 445T173 351Q173 300 189 257T236 182T308 132T397 114ZM334 757L418 880H547L463 757H334Z" />
<glyph unicode="&#xd4;" horiz-adv-x="794" d="M397 -13Q313 -13 246 15T130 94T56 210T30 351Q30 426 56 491T130 607T245 685T397 713Q481 713 548 685T664 607T738 492T764 351Q764 276 738 210T664 94T549 16T397 -13ZM397 114Q445 114 486 131T557 181T604
257T621 351Q621 402 605 445T558 520T486 569T397 587Q349 587 308 570T237 520T190 445T173 351Q173 300 189 257T236 182T308 132T397 114ZM239 757L323 880H470L554 757H443L396 825L350 757H239Z" />
<glyph unicode="&#xd5;" horiz-adv-x="794" d="M397 -13Q313 -13 246 15T130 94T56 210T30 351Q30 426 56 491T130 607T245 685T397 713Q481 713 548 685T664 607T738 492T764 351Q764 276 738 210T664 94T549 16T397 -13ZM397 114Q445 114 486 131T557 181T604
257T621 351Q621 402 605 445T558 520T486 569T397 587Q349 587 308 570T237 520T190 445T173 351Q173 300 189 257T236 182T308 132T397 114ZM457 747Q430 747 413 753T384 768T363 786Q354 794 347 799T331 804Q323 804 317 799T311 784V757H227V782Q227 829
257 859T336 890Q370 890 391 876T428 851Q437 844 445 839T462 833Q470 833 476 838T482 853V880H566V855Q566 808 536 778T457 747Z" />
<glyph unicode="&#xd6;" horiz-adv-x="794" d="M503 748Q474 748 453 769T432 819Q432 848 453 869T503 890Q532 890 553 869T574 819Q574 790 553 769T503 748ZM290 748Q261 748 240 769T219 819Q219 848 240 869T290 890Q319 890 340 869T361 819Q361 790 340
769T290 748ZM397 -13Q313 -13 246 15T130 94T56 210T30 351Q30 426 56 491T130 607T245 685T397 713Q481 713 548 685T664 607T738 492T764 351Q764 276 738 210T664 94T549 16T397 -13ZM397 114Q445 114 486 131T557 181T604 257T621 351Q621 402 605 445T558
520T486 569T397 587Q349 587 308 570T237 520T190 445T173 351Q173 300 189 257T236 182T308 132T397 114Z" />
<glyph unicode="&#xd7;" horiz-adv-x="576" d="M162 137L74 223L202 351L78 475L162 563L288 437L414 563L500 476L374 350L500 223L414 137L288 264L162 137Z" />
<glyph unicode="&#xd8;" horiz-adv-x="794" d="M397 -12Q342 -12 292 3T198 45L160 0H30L123 108Q80 157 55 219T30 350Q30 425 56 490T130 606T245 684T397 712Q453 712 503 697T595 655L635 701H765L670 591Q714 543 739 481T764 350Q764 275 738 210T664 94T549
16T397 -12ZM397 114Q445 114 486 131T557 181T604 256T621 350Q621 389 611 424T581 488L283 143Q308 129 337 122T397 114ZM212 211L510 556Q485 570 457 578T397 586Q349 586 308 569T237 519T190 444T173 350Q173 310 183 275T212 211Z" />
<glyph unicode="&#xd9;" horiz-adv-x="712" d="M356 -12Q271 -12 206 23T103 122T65 276V700H208V267Q208 225 226 191T277 135T357 114Q402 114 435 135T486 190T504 267V700H647V276Q647 187 610 123T507 23T356 -12ZM308 757L224 880H353L437 757H308Z" />
<glyph unicode="&#xda;" horiz-adv-x="712" d="M356 -12Q271 -12 206 23T103 122T65 276V700H208V267Q208 225 226 191T277 135T357 114Q402 114 435 135T486 190T504 267V700H647V276Q647 187 610 123T507 23T356 -12ZM290 757L374 880H503L419 757H290Z" />
<glyph unicode="&#xdb;" horiz-adv-x="712" d="M356 -12Q271 -12 206 23T103 122T65 276V700H208V267Q208 225 226 191T277 135T357 114Q402 114 435 135T486 190T504 267V700H647V276Q647 187 610 123T507 23T356 -12ZM199 757L283 880H430L514 757H403L356 825L310
757H199Z" />
<glyph unicode="&#xdc;" horiz-adv-x="712" d="M462 748Q433 748 412 769T391 819Q391 848 412 869T462 890Q491 890 512 869T533 819Q533 790 512 769T462 748ZM249 748Q220 748 199 769T178 819Q178 848 199 869T249 890Q278 890 299 869T320 819Q320 790 299
769T249 748ZM356 -12Q271 -12 206 23T103 122T65 276V700H208V267Q208 225 226 191T277 135T356 114Q402 114 435 135T486 190T504 267V700H647V276Q647 187 610 123T507 23T356 -12Z" />
<glyph unicode="&#xdd;" horiz-adv-x="712" d="M284 0V193Q219 207 170 244T93 339T65 474V700H208V465Q208 423 226 389T277 333T356 312Q402 312 435 333T486 388T504 465V700H647V474Q647 398 620 340T543 244T427 193V0H284ZM293 757L377 880H506L422 757H293Z" />
<glyph unicode="&#xde;" horiz-adv-x="637" d="M70 0V700H213V600H363Q432 600 488 569T578 481T612 351Q612 278 579 222T489 134T363 102H213V0H70ZM213 228H346Q380 228 408 242T452 284T469 351Q469 390 453 417T408 459T346 474H213V228Z" />
<glyph unicode="&#xdf;" horiz-adv-x="620" d="M60 0V496Q60 547 78 591T129 669T210 722T317 741Q384 741 439 715T527 643T560 537Q560 508 551 482T525 432T483 391Q513 370 534 342T568 283T580 216Q580 157 551 108T473 29T364 0H248V117H339Q368 117 391
131T428 168T442 220Q442 249 428 272T391 309T339 323H280V440H331Q363 440 383 451T412 483T422 532Q422 562 408 582T370 613T317 624Q286 624 259 609T214 565T197 496V0H60Z" />
<glyph unicode="&#xe0;" horiz-adv-x="638" d="M266 -12Q196 -12 144 24T64 120T35 254Q35 329 67 390T161 486T307 522Q393 522 452 486T542 389T573 254V0H436V85H434Q419 58 397 36T342 1T266 -12ZM305 105Q345 105 374 125T418 179T434 256Q434 298 419 331T374
385T305 405Q264 405 235 385T190 332T174 256Q174 214 189 180T234 125T305 105ZM261 577L177 700H306L390 577H261Z" />
<glyph unicode="&#xe1;" horiz-adv-x="638" d="M266 -12Q196 -12 144 24T64 120T35 254Q35 329 67 390T161 486T307 522Q393 522 452 486T542 389T573 254V0H436V85H434Q419 58 397 36T342 1T266 -12ZM305 105Q345 105 374 125T418 179T434 256Q434 298 419 331T374
385T305 405Q264 405 235 385T190 332T174 256Q174 214 189 180T234 125T305 105ZM244 577L328 700H457L373 577H244Z" />
<glyph unicode="&#xe2;" horiz-adv-x="638" d="M266 -12Q196 -12 144 24T64 120T35 254Q35 329 67 390T161 486T307 522Q393 522 452 486T542 389T573 254V0H436V85H434Q419 58 397 36T342 1T266 -12ZM305 105Q345 105 374 125T418 179T434 256Q434 298 419 331T374
385T305 405Q264 405 235 385T190 332T174 256Q174 214 189 180T234 125T305 105ZM152 577L236 700H383L467 577H356L309 645L263 577H152Z" />
<glyph unicode="&#xe3;" horiz-adv-x="638" d="M266 -12Q196 -12 144 24T64 120T35 254Q35 329 67 390T161 486T307 522Q393 522 452 486T542 389T573 254V0H436V85H434Q419 58 397 36T342 1T266 -12ZM305 105Q345 105 374 125T418 179T434 256Q434 298 419 331T374
385T305 405Q264 405 235 385T190 332T174 256Q174 214 189 180T234 125T305 105ZM369 567Q342 567 325 573T296 588T275 606Q266 614 259 619T243 624Q235 624 229 619T223 604V577H139V602Q139 649 169 679T248 710Q282 710 303 696T340 671Q349 664 357 659T374
653Q382 653 388 658T394 673V700H478V675Q478 628 448 598T369 567Z" />
<glyph unicode="&#xe4;" horiz-adv-x="638" d="M414 580Q385 580 364 601T343 651Q343 680 364 701T414 722Q443 722 464 701T485 651Q485 622 464 601T414 580ZM201 580Q172 580 151 601T130 651Q130 680 151 701T201 722Q230 722 251 701T272 651Q272 622 251
601T201 580ZM266 -12Q196 -12 144 24T64 120T35 254Q35 329 67 390T161 486T307 522Q393 522 452 486T542 389T573 254V0H436V85H434Q419 58 397 36T342 1T266 -12ZM305 105Q345 105 374 125T418 179T434 256Q434 298 419 331T374 385T305 405Q264 405 235 385T190
332T174 256Q174 214 189 180T234 125T305 105Z" />
<glyph unicode="&#xe5;" horiz-adv-x="638" d="M266 -12Q196 -12 144 24T64 120T35 254Q35 329 67 390T161 486T307 522Q393 522 452 486T542 389T573 254V0H436V85H434Q419 58 397 36T342 1T266 -12ZM305 105Q345 105 374 125T418 179T434 256Q434 298 419 331T374
385T305 405Q264 405 235 385T190 332T174 256Q174 214 189 180T234 125T305 105ZM308 563Q268 563 241 590T213 658Q213 698 240 725T308 753Q348 753 375 726T403 658Q403 618 376 591T308 563ZM308 619Q325 619 336 630T347 658Q347 675 336 686T309 697Q292
697 281 686T269 658Q269 642 280 631T308 619Z" />
<glyph unicode="&#xe6;" horiz-adv-x="896" d="M193 0Q151 0 117 21T61 76T40 153Q40 202 61 235T116 285T193 303H379V357Q379 373 368 383T341 393H89V510H354Q386 510 413 497T462 460Q494 489 534 505T621 522Q707 522 760 486T839 390T864 255Q864 245 863
232T860 211H515Q523 180 542 159T591 128T658 117H800V0H656Q601 0 555 16T472 61Q450 33 419 17T350 0H193ZM224 117H337Q355 117 367 128T379 156V211H224Q204 211 190 197T175 162Q175 149 181 139T199 123T224 117ZM514 303H727Q725 322 720 338T706 368T685
390T657 404T622 409Q597 409 578 400T545 376T525 342T514 303Z" />
<glyph unicode="&#xe7;" horiz-adv-x="404" d="M310 0Q231 0 169 34T71 125T35 255Q35 327 71 384T169 476T310 510H374V393H310Q268 393 238 375T191 326T174 255Q174 216 190 185T237 135T310 117H374V0H310ZM100 -203L197 24H328L231 -203H100Z" />
<glyph unicode="&#xe8;" horiz-adv-x="562" d="M322 0Q235 0 171 33T71 125T35 255Q35 336 68 396T158 489T287 522Q373 522 426 486T505 390T530 255Q530 245 529 232T526 211H181Q189 180 208 159T257 128T324 117H466V0H322ZM180 303H393Q391 322 386 338T372
368T351 390T323 404T288 409Q263 409 244 400T211 376T191 342T180 303ZM239 577L155 700H284L368 577H239Z" />
<glyph unicode="&#xe9;" horiz-adv-x="562" d="M322 0Q235 0 171 33T71 125T35 255Q35 336 68 396T158 489T287 522Q373 522 426 486T505 390T530 255Q530 245 529 232T526 211H181Q189 180 208 159T257 128T324 117H466V0H322ZM180 303H393Q391 322 386 338T372
368T351 390T323 404T288 409Q263 409 244 400T211 376T191 342T180 303ZM230 577L314 700H443L359 577H230Z" />
<glyph unicode="&#xea;" horiz-adv-x="562" d="M322 0Q235 0 171 33T71 125T35 255Q35 336 68 396T158 489T287 522Q373 522 426 486T505 390T530 255Q530 245 529 232T526 211H181Q189 180 208 159T257 128T324 117H466V0H322ZM180 303H393Q391 322 386 338T372
368T351 390T323 404T288 409Q263 409 244 400T211 376T191 342T180 303ZM136 577L220 700H367L451 577H340L293 645L247 577H136Z" />
<glyph unicode="&#xeb;" horiz-adv-x="562" d="M399 580Q370 580 349 601T328 651Q328 680 349 701T399 722Q428 722 449 701T470 651Q470 622 449 601T399 580ZM186 580Q157 580 136 601T115 651Q115 680 136 701T186 722Q215 722 236 701T257 651Q257 622 236
601T186 580ZM322 0Q235 0 171 33T71 125T35 255Q35 336 68 396T158 489T287 522Q373 522 426 486T505 390T530 255Q530 245 529 232T526 211H181Q189 180 208 159T257 128T324 117H466V0H322ZM180 303H393Q391 322 386 338T372 368T351 390T323 404T288 409Q263
409 244 400T211 376T191 342T180 303Z" />
<glyph unicode="&#xec;" horiz-adv-x="267" d="M65 0V510H203V0H65ZM75 577L-9 700H120L204 577H75Z" />
<glyph unicode="&#xed;" horiz-adv-x="267" d="M65 0V510H203V0H65ZM58 577L142 700H271L187 577H58Z" />
<glyph unicode="&#xee;" horiz-adv-x="267" d="M65 0V510H203V0H65ZM-24 577L60 700H207L291 577H180L133 645L87 577H-24Z" />
<glyph unicode="&#xef;" horiz-adv-x="267" d="M240 580Q211 580 190 601T169 651Q169 680 190 701T240 722Q269 722 290 701T311 651Q311 622 290 601T240 580ZM27 580Q-2 580 -23 601T-44 651Q-44 680 -23 701T27 722Q56 722 77 701T98 651Q98 622 77 601T27
580ZM65 0V510H203V0H65Z" />
<glyph unicode="&#xf0;" horiz-adv-x="608" d="M304 -12Q240 -12 190 8T105 65T53 150T35 255Q35 334 67 391T150 479T258 511Q281 511 304 505T345 487L347 488L276 592L160 574V655L226 665L182 730H345L373 687L484 703V623L420 613L481 517Q508 475 529 435T561
352T573 265Q573 181 540 119T447 22T304 -12ZM304 105Q345 105 374 125T418 179T434 255Q434 301 418 334T373 386T307 405Q265 405 235 384T190 329T174 255Q174 213 189 179T234 125T304 105Z" />
<glyph unicode="&#xf1;" horiz-adv-x="628" d="M65 0V293Q65 356 94 408T180 491T314 522Q393 522 448 491T533 408T563 293V0H426V293Q426 324 411 349T371 390T314 405Q283 405 258 390T217 350T202 293V0H65ZM374 568Q347 568 330 574T301 589T280 607Q271
615 264 620T248 625Q240 625 234 620T228 605V578H144V603Q144 650 174 680T253 711Q287 711 308 697T345 672Q354 665 362 660T379 654Q387 654 393 659T399 674V701H483V676Q483 629 453 599T374 568Z" />
<glyph unicode="&#xf2;" horiz-adv-x="620" d="M310 -12Q231 -12 169 23T71 119T35 255Q35 330 71 390T169 486T310 522Q389 522 451 487T549 391T585 255Q585 180 549 120T451 24T310 -12ZM310 105Q352 105 382 125T429 179T446 255Q446 297 430 331T383 385T310
405Q268 405 238 385T191 331T174 255Q174 213 190 179T237 125T310 105ZM264 577L180 700H309L393 577H264Z" />
<glyph unicode="&#xf3;" horiz-adv-x="620" d="M310 -12Q231 -12 169 23T71 119T35 255Q35 330 71 390T169 486T310 522Q389 522 451 487T549 391T585 255Q585 180 549 120T451 24T310 -12ZM310 105Q352 105 382 125T429 179T446 255Q446 297 430 331T383 385T310
405Q268 405 238 385T191 331T174 255Q174 213 190 179T237 125T310 105ZM244 577L328 700H457L373 577H244Z" />
<glyph unicode="&#xf4;" horiz-adv-x="620" d="M310 -12Q231 -12 169 23T71 119T35 255Q35 330 71 390T169 486T310 522Q389 522 451 487T549 391T585 255Q585 180 549 120T451 24T310 -12ZM310 105Q352 105 382 125T429 179T446 255Q446 297 430 331T383 385T310
405Q268 405 238 385T191 331T174 255Q174 213 190 179T237 125T310 105ZM155 577L239 700H386L470 577H359L312 645L266 577H155Z" />
<glyph unicode="&#xf5;" horiz-adv-x="620" d="M310 -12Q231 -12 169 23T71 119T35 255Q35 330 71 390T169 486T310 522Q389 522 451 487T549 391T585 255Q585 180 549 120T451 24T310 -12ZM310 105Q352 105 382 125T429 179T446 255Q446 297 430 331T383 385T310
405Q268 405 238 385T191 331T174 255Q174 213 190 179T237 125T310 105ZM370 567Q343 567 326 573T297 588T276 606Q267 614 260 619T244 624Q236 624 230 619T224 604V577H140V602Q140 649 170 679T249 710Q283 710 304 696T341 671Q350 664 358 659T375 653Q383
653 389 658T395 673V700H479V675Q479 628 449 598T370 567Z" />
<glyph unicode="&#xf6;" horiz-adv-x="620" d="M418 580Q389 580 368 601T347 651Q347 680 368 701T418 722Q447 722 468 701T489 651Q489 622 468 601T418 580ZM205 580Q176 580 155 601T134 651Q134 680 155 701T205 722Q234 722 255 701T276 651Q276 622 255
601T205 580ZM310 -12Q231 -12 169 23T71 119T35 255Q35 330 71 390T169 486T310 522Q389 522 451 487T549 391T585 255Q585 180 549 120T451 24T310 -12ZM310 105Q352 105 382 125T429 179T446 255Q446 297 430 331T383 385T310 405Q268 405 238 385T191 331T174
255Q174 213 190 179T237 125T310 105Z" />
<glyph unicode="&#xf7;" horiz-adv-x="576" d="M289 467Q254 467 229 492T203 553Q203 588 228 613T289 639Q324 639 349 614T375 553Q375 518 350 493T289 467ZM289 61Q254 61 229 86T203 147Q203 182 228 207T289 233Q324 233 349 208T375 147Q375 112 350 87T289
61ZM50 289V411H526V289H50Z" />
<glyph unicode="&#xf8;" horiz-adv-x="620" d="M310 -12Q268 -12 231 -1T161 29L134 0H14L94 87Q66 121 51 164T35 255Q35 330 71 390T169 486T310 522Q352 522 390 512T459 482L485 510H605L526 424Q554 390 569 347T585 255Q585 180 549 120T451 24T310 -12ZM310
105Q352 105 382 125T429 179T446 255Q446 274 443 291T433 323L245 121Q259 114 275 110T310 105ZM187 187L374 390Q361 398 345 401T310 405Q268 405 238 385T191 331T174 255Q174 236 177 220T187 187Z" />
<glyph unicode="&#xf9;" horiz-adv-x="628" d="M314 -12Q236 -12 180 19T95 102T65 217V510H202V217Q202 186 217 161T257 120T314 105Q345 105 370 120T411 160T426 217V510H563V217Q563 154 534 102T449 19T314 -12ZM261 577L177 700H306L390 577H261Z" />
<glyph unicode="&#xfa;" horiz-adv-x="628" d="M314 -12Q236 -12 180 19T95 102T65 217V510H202V217Q202 186 217 161T257 120T314 105Q345 105 370 120T411 160T426 217V510H563V217Q563 154 534 102T449 19T314 -12ZM250 577L334 700H463L379 577H250Z" />
<glyph unicode="&#xfb;" horiz-adv-x="628" d="M314 -12Q236 -12 180 19T95 102T65 217V510H202V217Q202 186 217 161T257 120T314 105Q345 105 370 120T411 160T426 217V510H563V217Q563 154 534 102T449 19T314 -12ZM156 577L240 700H387L471 577H360L313 645L267
577H156Z" />
<glyph unicode="&#xfc;" horiz-adv-x="628" d="M420 580Q391 580 370 601T349 651Q349 680 370 701T420 722Q449 722 470 701T491 651Q491 622 470 601T420 580ZM207 580Q178 580 157 601T136 651Q136 680 157 701T207 722Q236 722 257 701T278 651Q278 622 257
601T207 580ZM314 -12Q236 -12 180 19T95 102T65 217V510H202V217Q202 186 217 161T257 120T314 105Q345 105 370 120T411 160T426 217V510H563V217Q563 154 534 102T449 19T314 -12Z" />
<glyph unicode="&#xfd;" horiz-adv-x="628" d="M247 -203V-5Q189 7 149 39T87 117T65 217V510H202V217Q202 186 217 161T257 120T314 105Q345 105 370 120T411 160T426 217V510H563V217Q563 164 542 119T481 41T384 -4V-203H247ZM247 577L331 700H460L376 577H247Z" />
<glyph unicode="&#xfe;" horiz-adv-x="638" d="M65 -203V730H202V457H203Q224 478 248 492T300 514T357 522Q428 522 483 489T571 396T603 255Q603 195 585 146T533 61T455 7T357 -12Q314 -12 275 5T203 53H202V-203H65ZM334 105Q375 105 404 125T448 179T464
255Q464 297 449 331T404 385T334 405Q294 405 265 385T220 331T204 255Q204 213 219 179T264 125T334 105Z" />
<glyph unicode="&#xff;" horiz-adv-x="628" d="M423 580Q394 580 373 601T352 651Q352 680 373 701T423 722Q452 722 473 701T494 651Q494 622 473 601T423 580ZM210 580Q181 580 160 601T139 651Q139 680 160 701T210 722Q239 722 260 701T281 651Q281 622 260
601T210 580ZM247 -203V-5Q189 7 149 39T87 117T65 217V510H202V217Q202 186 217 161T257 120T314 105Q345 105 370 120T411 160T426 217V510H563V217Q563 164 542 119T481 41T384 -4V-203H247Z" />
<glyph unicode="&#x2013;" horiz-adv-x="500" d="M0 193V319H500V193H0Z" />
<glyph unicode="&#x2014;" horiz-adv-x="1000" d="M0 193V319H1000V193H0Z" />
<glyph unicode="&#x2018;" horiz-adv-x="271" d="M133 369Q90 369 65 398T40 466Q40 493 45 515T60 568L105 700H219L167 548Q197 538 211 512T226 460Q226 422 199 396T133 369Z" />
<glyph unicode="&#x2019;" horiz-adv-x="271" d="M52 382L104 534Q74 545 60 570T45 622Q45 660 72 686T138 713Q181 713 206 684T231 616Q231 589 227 567T211 514L166 382H52Z" />
<glyph unicode="&#x201a;" horiz-adv-x="266" d="M47 -157L99 -5Q69 6 55 31T40 83Q40 121 67 147T133 174Q176 174 201 145T226 77Q226 50 222 28T206 -25L161 -157H47Z" />
<glyph unicode="&#x201c;" horiz-adv-x="518" d="M133 369Q90 369 65 398T40 466Q40 493 45 515T60 568L105 700H219L167 548Q197 538 211 512T226 460Q226 422 199 396T133 369ZM380 369Q337 369 312 398T287 466Q287 493 292 515T307 568L352 700H466L414 548Q444
538 458 512T473 460Q473 422 446 396T380 369Z" />
<glyph unicode="&#x201d;" horiz-adv-x="518" d="M52 382L104 534Q74 545 60 570T45 622Q45 660 72 686T138 713Q181 713 206 684T231 616Q231 589 227 567T211 514L166 382H52ZM299 382L351 534Q321 545 307 570T292 622Q292 660 319 686T385 713Q428 713 453
684T478 616Q478 589 474 567T458 514L413 382H299Z" />
<glyph unicode="&#x201e;" horiz-adv-x="513" d="M47 -157L99 -5Q69 6 55 31T40 83Q40 121 67 147T133 174Q176 174 201 145T226 77Q226 50 222 28T206 -25L161 -157H47ZM294 -157L346 -5Q316 6 302 31T287 83Q287 121 314 147T380 174Q423 174 448 145T473 77Q473
50 469 28T453 -25L408 -157H294Z" />
<glyph unicode="&#x2022;" horiz-adv-x="294" d="M147 168Q101 168 68 201T35 280Q35 326 68 359T147 392Q193 392 226 359T259 280Q259 234 226 201T147 168Z" />
<glyph unicode="&#x2039;" horiz-adv-x="331" d="M171 119L30 314L171 510H301L164 314L301 119H171Z" />
<glyph unicode="&#x203a;" horiz-adv-x="331" d="M30 119L167 314L30 510H160L301 314L160 119H30Z" />
</font>
</defs>
</svg>
